<?xml version="1.0" standalone="no"?> 
<!DOCTYPE svg PUBLIC "-//W3C//DTD SVG 1.1//EN" "http://www.w3.org/Graphics/SVG/1.1/DTD/svg11.dtd" >
<svg xmlns="http://www.w3.org/2000/svg">
<defs>
  <font id="icons" horiz-adv-x="753">
    <font-face font-family="icons"
      units-per-em="500" ascent="500"
      descent="0" />
    <missing-glyph horiz-adv-x="0" />
    <glyph glyph-name="add"
      unicode="&#xF101;"
      horiz-adv-x="500" d=" M286.92 211.7276H462.7559C482.6769 211.7276 499 230.8034 499 250.7244A36.342 36.342 0 0 1 462.78 286.9444H286.92V462.78A36.3108 36.3108 0 0 1 250.7 499C230.779 499 213.0554 482.7252 213.0554 462.78V286.9443H37.22C17.2749 286.9443 1 269.2207 1 249.3243C1 229.3792 17.2748 211.728 37.22 211.728H213.0557V37.22A36.3264 36.3264 0 0 1 249.2757 1C269.1967 1 286.9203 17.299 286.9203 37.22z" />
    <glyph glyph-name="admin"
      unicode="&#xF102;"
      horiz-adv-x="500" d=" M280.329 124.6473C186.4926 103.838 104.723 185.6073 125.5324 279.444C136.0018 326.7183 174.1667 364.8832 221.4411 375.3527C315.2775000000001 396.1619999999999 397.0255 314.414 376.2377 220.5776C365.7683 173.2817 327.6034 135.1383999999999 280.329 124.6476M499 231.0039V268.9961A22.3913 22.3913 0 0 1 476.6148 291.3813H470.4627A33.3049 33.3049 0 0 0 439.0112 314.1766A201.10740000000004 201.10740000000004 0 0 1 429.0812 337.9866A33.3146 33.3146 0 0 0 435.0822 376.5832000000001L439.4859 380.9868A22.37 22.37 0 0 1 439.4859 412.6326L412.6325 439.5077A22.37 22.37 0 0 1 380.9867 439.5077L376.2593 434.78A33.3716 33.3716 0 0 0 337.7922 428.6926A198.53 198.53 0 0 1 314.2845 438.4066000000001A33.3582 33.3582 0 0 0 291.36 469.923V476.6364A22.3682 22.3682 0 0 1 268.9961 499H230.9823A22.3682 22.3682 0 0 1 208.6187 476.6364V469.2538A33.3646 33.3646 0 0 0 185.8887 437.8023A200.8253 200.8253 0 0 1 162.9422 428.1964A33.453 33.453 0 0 0 124.2809 434.1974L118.9922 439.5074A22.344099999999997 22.344099999999997 0 0 1 87.368 439.5074L60.4707 412.6325A22.4093 22.4093 0 0 1 60.4707 380.9867L66.1048 375.3743A33.41 33.41 0 0 0 72.1922 336.8856A197.01159999999996 197.01159999999996 0 0 1 62.8022 314.2198A33.3989 33.3989 0 0 0 31.3075 291.3813H23.3636A22.359 22.359 0 0 1 1 268.9961V231.0039000000001A22.3406 22.3406 0 0 1 23.3636 208.64H31.3074A33.4187 33.4187 0 0 0 62.8021 185.78A196.6783 196.6783 0 0 1 72.1921 163.1358A33.3992 33.3992 0 0 0 66.1047 124.6471L60.4706 119.0131A22.4094 22.4094 0 0 1 60.4706 87.3672999999999L87.3674 60.4920999999999A22.3832 22.3832 0 0 1 118.9916 60.4920999999999L124.2803 65.8020999999999A33.4581 33.4581 0 0 0 162.9416 71.8247A197.15 197.15 0 0 1 185.8881 62.1972A33.3373 33.3373 0 0 0 208.6181 30.7671999999999V23.3845999999999A22.372900000000005 22.372900000000005 0 0 1 230.9823 1H268.9961A22.3728 22.3728 0 0 1 291.36 23.3852V30.0986A33.3582 33.3582 0 0 0 314.2848 61.6148A198.4137 198.4137 0 0 1 337.7925 71.3072A33.3716 33.3716 0 0 0 376.2596000000001 65.2198L380.987 60.4923A22.4093 22.4093 0 0 1 412.6328000000001 60.4923L439.4864 87.3675A22.37 22.37 0 0 1 439.4864 119.0133L435.0827 123.4169A33.32 33.32 0 0 0 429.0817 162.0135A202.6308 202.6308 0 0 1 439.0117 185.8235A33.3247 33.3247 0 0 0 470.4627 208.64H476.6148A22.372900000000005 22.372900000000005 0 0 1 499 231.0039" />
    <glyph glyph-name="alert-notification"
      unicode="&#xF103;"
      horiz-adv-x="500" d=" M250.0017 94.2194A50.78929999999999 50.78929999999999 0 0 0 199.7405 136.3094H300.2629A50.78929999999999 50.78929999999999 0 0 0 250.0017 94.2194zM388.2817 214.2579C390.6629 211.7325 412.6894 187.8255 411.5838 167.454A14.383300000000002 14.383300000000002 0 0 0 397.1263 153.144H102.8734A14.383300000000002 14.383300000000002 0 0 0 88.4159 167.454V167.9591C87.3103 187.8255 109.3368 211.7325 111.8031 214.4347C144.97 251.297 144.97 312.4957 144.97 352.9019V362.4984C145.0551 365.4447 145.14 368.2226 145.31 371.0847C148.5417 424.7914 183.92 453.2441 218.7883 463.1773A25.8989 25.8989 0 0 0 218.5331 466.7973A31.466399999999997 31.466399999999997 0 1 0 281.4659 466.7973A24.6694 24.6694 0 0 0 281.2107 463.1773C316.0789 453.2441 351.4573 424.7914 354.689 371.0847C354.859 368.2226 354.9441 365.4447 355.029 362.4984V352.9019C355.03 312.4957 355.03 251.297 388.282 214.2579zM25.9 50.8071H474.1A24.9 24.9 0 1 0 474.1 1.0071H25.9A24.9 24.9 0 1 0 25.9 50.8071z" />
    <glyph glyph-name="ambulant-sales"
      unicode="&#xF104;"
      horiz-adv-x="500" d=" M48.5092 114.9784C50.302 115.3768 92.7316 124.8384 115.2412 164.4796C116.536 166.7704 117.6312 169.2604 118.8268 171.6508L118.6276 93.0664A17.7289 17.7289 0 0 1 154.0852 92.9664L154.5832 258.8004A16.286899999999996 16.286899999999996 0 0 1 154.384 260.9916V269.358A94.3206 94.3206 0 0 1 206.0764 242.3664C207.2716 242.1672 211.654 241.7688 212.7496 241.7688H237.5496V111.6916A10.2442 10.2442 0 0 1 247.8084 101.4328H263.944C263.844 100.3372 263.6452 99.1421 263.6452 97.9468A22.36 22.36 0 1 1 308.3652 97.9468A20.5956 20.5956 0 0 1 308.0664 101.4328H409.5592A19.7465 19.7465 0 0 1 409.2604 97.9468A22.36 22.36 0 1 1 453.9803999999999 97.9468A20.77 20.77 0 0 1 453.5819999999999 101.4328H462.5459999999999L462.646 101.5328A9.9291 9.9291 0 0 1 472.506 110.3971L472.8048 110.5964V252.028A10.2442 10.2442 0 0 1 462.546 262.2868H220.4188A13.73 13.73 0 0 1 210.7576 269.3584A67.5815 67.5815 0 0 0 154.2844 335.9908A13.567799999999998 13.567799999999998 0 0 1 142.2328 349.4368A95.05060000000002 95.05060000000002 0 0 1 36.358 266.4700000000001A96.85 96.85 0 0 1 37.1548 238.084A13.605 13.605 0 0 1 64.1464 240.574A19.3412 19.3412 0 0 1 63.9472 242.964A69.2889 69.2889 0 0 0 62.8516 254.916A76.70939999999999 76.70939999999999 0 0 0 63.3496 263.1828A67.57 67.57 0 0 0 88.8472 308.4012A63.26820000000001 63.26820000000001 0 0 0 98.9072 314.7756V234.6972C97.6124 218.7612 93.9272 198.5424 84.5648 182.0088C70.1228 156.5112 41.438 149.7388 41.1392 149.6388A17.861300000000004 17.861300000000004 0 0 1 27.6932 128.5236A17.4492 17.4492 0 0 1 48.5092 114.9784zM257.968 241.57H452.288V121.7512H257.968zM462.5464 345.652A30.550000000000004 30.550000000000004 0 0 0 472.0084 323.142A8.3526 8.3526 0 0 0 463.642 314.7756H254.0836A8.3664 8.3664 0 0 0 254.0836 331.5084H353.4844V347.9424C353.4844 360.4924 371.3128 363.0816 386.2528 363.0816H388.2448C425.4948 363.8784 449.7976 358.1016 462.5464 345.6516zM245.2192 401.926A8.4169 8.4169 0 0 0 253.5856 410.2924H394.1212C394.42 410.2924 394.7188 410.1924 395.0176 410.1924A25.4127 25.4127 0 0 0 418.822 426.4276H466.63A5.5776 5.5776 0 1 0 466.63 415.2724H425.9932V415.1724000000001H423.0052A3.8348999999999998 3.8348999999999998 0 1 1 423.0052 407.5032H425.9932V407.4032000000001H465.9332A5.5684 5.5684 0 0 0 471.5108 401.8256A5.4845 5.4845 0 0 0 465.9332 396.3476H425.9932V396.2476000000001H423.0052A3.8844000000000003 3.8844000000000003 0 0 1 423.0052 388.4788000000001H466.73A5.528 5.528 0 1 0 466.63 377.4232H418.822A25.5237 25.5237 0 0 0 395.1172000000001 393.658A3.3883 3.3883 0 0 0 394.1212000000001 393.558H253.5856A8.4827 8.4827 0 0 0 245.2192 401.9244zM98.01 386.3884A29.3991 29.3991 0 1 0 133.866 365.074A29.2649 29.2649 0 0 0 98.01 386.3884z M25.9 51.8H474.1A24.9 24.9 0 1 0 474.1 2H25.9A24.9 24.9 0 1 0 25.9 51.8z" />
    <glyph glyph-name="arrow-double"
      unicode="&#xF105;"
      horiz-adv-x="500" d=" M499.05 250.8291L282.2043 30.4874C268.2201 16.5033 243.0119 16.5033 225.5318 30.4874C211.5477 44.4715 211.5477 73.1757 225.5318 87.1599L385.7051 250.8291L224.8878 410.2664C210.9037 427.7464 210.9037 452.9548 224.8878 466.9389L231.8799 473.9309C249.3599 484.419 271.0722 480.923 285.0563 466.9389L499.05 250.8291z M285.7 250.8291L68.8546 30.4874C54.8704 16.5033 29.6622 16.5033 12.1821 30.4874C-1.71 44.4715 -1.71 73.1757 12.2741 87.16L172.4474 250.8291L11.5381 410.2664C-2.446 427.7464 -2.446 452.9548 11.5381 466.9389L18.5302 473.9309C36.0102 484.419 57.7225 480.923 71.7066 466.9389L285.7 250.8292z" />
    <glyph glyph-name="arrow-down"
      unicode="&#xF106;"
      horiz-adv-x="500" d=" M250.8823 95.9275L12.3539 330.6713C-2.7844 345.8097 -2.7844 373.0985 12.3539 392.0213C27.4923 407.1596 58.5657 407.1596 73.7039 392.0213L250.8823 218.6277L423.4793 392.7186000000001C442.4022 407.8569 469.6910999999999 407.8569 484.8293 392.7186000000001L492.3985 385.1494C503.7522 366.2265 499.9676 342.7222000000001 484.8293 327.5839000000001L250.8823 95.9274z" />
    <glyph glyph-name="arrow-next"
      unicode="&#xF107;"
      horiz-adv-x="500" d=" M404.0725 250.8823L169.3287 12.3538C154.1904 -2.7845 126.9015 -2.7845 107.9787 12.3538C92.8404 27.4922 92.8404 58.5656 107.9787 73.7038L281.3723 250.8823L107.2814 423.4792C92.1431 442.4022 92.1431 469.691 107.2814 484.8292L114.8506 492.3984C133.7736 503.7522 157.2778 499.9676 172.4161 484.8292L404.0726 250.8822z" />
    <glyph glyph-name="arrow-prev"
      unicode="&#xF108;"
      horiz-adv-x="500" d=" M95.9276 249.1177L330.6714 487.6461C345.8098 502.7845 373.0986000000001 502.7845 392.0214000000001 487.6461C407.1598 472.5078 407.1598 441.4343 392.0214000000001 426.2961L218.6278 249.1177L392.7187 76.5207C407.8570000000001 57.5978 407.8570000000001 30.309 392.7187 15.1707L385.1495 7.6015C366.2266 -3.7522 342.7224 0.0324 327.584 15.1707L95.9276 249.1177z" />
    <glyph glyph-name="arrow-real"
      unicode="&#xF109;"
      horiz-adv-x="500" d=" M277.1742 80.0466C263.3225 92.6783 263.3225 113.2048 277.1742 125.8366L377.7970000000001 217.56H36.5983C16.9331 217.6313 1 232.0573 1 250S16.9331 282.3687 36.5983 282.3687H377.8683L277.246 374.1636C263.3942 386.7952 263.3942 407.3217 277.246 419.9536A38.135 38.135 0 0 0 327.5574 419.9536L488.6112 272.8949C502.4629 260.2632 502.4629 239.7368 488.6112 227.1049L327.4856 80.0466C313.6338 67.415 291.0978 67.415 277.1742 80.0466z" />
    <glyph glyph-name="arrow-up"
      unicode="&#xF10A;"
      horiz-adv-x="500" d=" M249.1177 404.0725L487.6461 169.3286C502.7844 154.1903 502.7844 126.9015 487.6461 107.9786C472.5077 92.8403 441.4343 92.8403 426.2961 107.9786L249.1177 281.3723L76.5207 107.2814C57.5978 92.143 30.3089 92.143 15.1707 107.2814L7.6015 114.8506000000001C-3.7522 133.7735 0.0324 157.2777000000001 15.1707 172.4161L249.1177 404.0725z" />
    <glyph glyph-name="arrow"
      unicode="&#xF10B;"
      horiz-adv-x="500" d=" M404.0725 250.8823L169.3287 12.3538C154.1904 -2.7845 126.9015 -2.7845 107.9787 12.3538C92.8404 27.4922 92.8404 58.5656 107.9787 73.7038L281.3723 250.8823L107.2814 423.4792C92.1431 442.4022 92.1431 469.691 107.2814 484.8292L114.8506 492.3984C133.7736 503.7522 157.2778 499.9676 172.4161 484.8292L404.0726 250.8822z" />
    <glyph glyph-name="booking"
      unicode="&#xF10C;"
      horiz-adv-x="500" d=" M36.3067 113.8773L386.5211 463.1954L411.1167 438.6C411.0167 438.5 410.818 438.5 410.7184 438.3012C407.7311 435.3139 407.3328 430.2355 410.3201 427.2481L457.2212 380.3471A8.0421 8.0421 0 0 1 468.2742999999999 380.7454C468.4733999999999 380.8454 468.4733999999999 381.0441 468.5729999999999 381.1437L491.5753999999999 358.1413A25.2427 25.2427 0 0 0 491.5753999999999 322.2934L177.209 8.9225A25.2431 25.2431 0 0 0 141.361 9.0225zM8.425 141.759L10.815 139.369L361.1288 488.5877L358.6388 490.9777A25.423200000000005 25.423200000000005 0 0 1 322.7909 491.0777L8.5246 177.7065A25.4527 25.4527 0 0 1 8.425 141.759z" />
    <glyph glyph-name="bookmark-off"
      unicode="&#xF10D;"
      horiz-adv-x="500" d=" M393.8232 187.65L187.8493 393.7236000000001L231.7731 486.6509A19.941 19.941 0 0 0 268.2269 486.6509L334.1624 347.1109L481.6708 324.7A20.547799999999995 20.547799999999995 0 0 0 498.0053 310.2579A21.94 21.94 0 0 0 492.8261 288.4454L393.8232 187.65zM1.9947 310.2583A21.94 21.94 0 0 1 7.1739 288.4458L113.8461 179.7816L88.6472 26.3968A21.9882 21.9882 0 0 1 96.7148 5.58A19.5106 19.5106 0 0 1 118.1289 3.9864L250 76.3963L381.8711 3.9863A19.398 19.398 0 0 1 403.2852000000001 5.5799C404.9784 6.8747 405.7752000000001 8.7671 406.9704000000001 10.4599L83.1691 334.4599L18.4291 324.5999A20.4042 20.4042 0 0 1 1.9947 310.2583zM25.7 474.0016A19.2369 19.2369 0 0 1 25.7 446.711L450.3962 21.7156A19.2973 19.2973 0 0 1 477.6868 49.0061L52.99 474.0016A19.237 19.237 0 0 1 25.6994 474.0016z" />
    <glyph glyph-name="bookmark"
      unicode="&#xF10E;"
      horiz-adv-x="500" d=" M498.0053 310.1587A20.6765 20.6765 0 0 1 481.5712 324.6008000000001L334.0628 347.0108L268.2269 486.5508A19.941 19.941 0 0 1 231.7731 486.5508L165.8376 347.0108L18.3292 324.6008000000001A20.547799999999995 20.547799999999995 0 0 1 1.9947 310.1587A21.71 21.71 0 0 1 7.1739 288.4458L113.8461 179.8812L88.6471 26.4964A21.774800000000003 21.774800000000003 0 0 1 96.7148 5.68A19.9288 19.9288 0 0 1 108.6669 1.5964A18.9418 18.9418 0 0 1 118.1289 4.0864L250 76.4959L381.8711 4.0859A19.8973 19.8973 0 0 1 403.2852000000001 5.6795A21.6921 21.6921 0 0 1 411.3528000000001 26.496L386.1539 179.8812L492.8261 288.4458A21.71 21.71 0 0 1 498.0053 310.1587z" />
    <glyph glyph-name="bypass"
      unicode="&#xF10F;"
      horiz-adv-x="500" d=" M298.9236 232.8207A67.2233 67.2233 0 1 0 231.7 300.1436A67.2819 67.2819 0 0 0 298.9236 232.8207zM305.397 498.029A24.9971 24.9971 0 1 1 305.397 448.0348H411.3608L386.6624 423.3365C361.1674 397.7418 323.124 389.2765 287.4708 401.0283A177.2989 177.2989 0 0 1 63.4928 177.05C75.344 141.2972 66.7792 103.2538 41.1846 77.6591L8.32 44.7947A25.07 25.07 0 1 1 43.774 9.3407L76.6387 42.2053999999999A143.7793 143.7793 0 0 1 115.2797 112.7153999999999A150.7746 150.7746 0 0 1 111.0969 192.6860999999999A128.4476 128.4476 0 0 0 107.8104 261.0048999999999A127.0719 127.0719 0 0 0 271.7356 353.3248999999999A150.4067 150.4067 0 0 1 351.6068 349.1420999999999A143.4742 143.4742 0 0 1 422.0168 387.7829999999999L449.0057 414.7718999999999V304.1272A24.9971 24.9971 0 1 1 498.9999 304.1272V498.029z" />
    <glyph glyph-name="calendar-time"
      unicode="&#xF110;"
      horiz-adv-x="500" d=" M469.9 141.2973V142.8551C469.9 148.0477 466.3071 152.7211 461.1736 153.2403L389.8224 163.6256L364.156 215.0312A9.6849 9.6849 0 0 1 354.916 220.7422A14.8514 14.8514 0 0 1 350.296 219.7045000000001A9.4008 9.4008 0 0 1 345.1634 213.9926000000001C344.1372 211.3963000000001 344.6498 208.8 345.6769 205.6844000000001L375.9618 144.4128000000001L458.0934999999999 132.4706000000001H459.6340999999999A10.0963 10.0963 0 0 1 469.9 141.2973M498.9961 155.209C498.9961 91.3698 446.7561 38.9496 382.7384 38.9496A116.2594 116.2594 0 0 0 382.7384 271.4683C447.2684 271.4683 499.5083999999999 219.5673000000001 498.9961 155.2090000000001M383.1485 290.1174A136.1719 136.1719 0 0 0 454.6657 270V408.5935A20.5831 20.5831 0 0 1 434.0825000000001 429.1768H413.4992A20.6444 20.6444 0 0 1 392.916 408.5935V346.9415A20.6813 20.6813 0 0 0 372.235 326.26H331.1662A20.583799999999997 20.583799999999997 0 0 0 310.5830000000001 346.8441000000001V408.5941000000001C310.5830000000001 429.1774000000001 300.2914 429.1774000000001 300.2914 429.1774000000001C290 429.1768 290 414.7713 290 408.5935V346.8435A20.583799999999997 20.583799999999997 0 0 0 269.4165 326.26H228.26A20.5856 20.5856 0 0 0 207.666 346.8441000000001V408.5941000000001C207.666 414.7719 203.553 429.1774000000001 197.3753 429.1774000000001S187.0836 423.7474 187.0836 408.5941000000001V346.8441000000001A20.5844 20.5844 0 0 0 166.5 326.26H125.333A20.5844 20.5844 0 0 0 104.75 346.8438V408.5938C104.75 429.1771 90.3454 429.1771 84.1668 429.1771H63.5832A20.5831 20.5831 0 0 1 43 408.5935V120.4281A41.1673 41.1673 0 0 1 84.1665 79.2608H270.6637A134.4311 134.4311 0 0 0 247.5837 154.7981C247.5837 229.7069 308.4986 290.1174 383.1486 290.1174M145.9162 346.8438C157.1494 346.8438 166.0114 356.1938 166.0114 367.427V429.177A20.340600000000002 20.340600000000002 0 1 1 125.333 429.177V367.427A20.7585 20.7585 0 0 1 145.9162 346.8438M351.7495 346.8438A20.758 20.758 0 0 1 372.3327 367.427L371.8447 429.177A20.3407 20.3407 0 1 1 331.1662 429.177V367.427A20.7581 20.7581 0 0 1 351.75 346.8438M228.25 367.427V429.177A20.5833 20.5833 0 0 0 269.4165 429.177L269.1725 367.427A20.5493 20.5493 0 0 0 248.8333 346.8438A20.7581 20.7581 0 0 0 228.25 367.427" />
    <glyph glyph-name="calendar"
      unicode="&#xF111;"
      horiz-adv-x="500" d=" M374.5 349.6269A25.2148 25.2148 0 0 0 349.5821000000001 374.5448V449.209C349.5821000000001 462.7435 360.6069000000001 474.1269 374.1415 474.1269S398.7009 462.7435 398.7009 449.209L399.3283 374.5448A25.1371 25.1371 0 0 0 374.5 349.6269zM149.7905 374.5448V449.209C149.7905 462.7435 138.7657 474.1269 125.2311 474.1269S100.6717 462.7435 100.6717 449.209V374.5448A25.2148 25.2148 0 0 1 125.59 349.6269C139.1242 349.6269 149.7905 361.01 149.7905 374.5448zM324.6642 424.291V349.6269A24.9219 24.9219 0 0 1 349.5821 324.709H399.2387A24.96 24.96 0 0 1 424.2462 349.7165V424.291A24.922 24.922 0 0 0 449.1641 449.209H474.0821A24.922 24.922 0 0 0 499 424.291V75.709A49.844 49.844 0 0 0 449.1641 25.8731H50.8359A49.97809999999999 49.97809999999999 0 0 0 1 75.7986V424.291A24.922 24.922 0 0 0 25.9179 449.209H50.8359C58.2754 449.209 75.7538 449.209 75.7538 424.291V349.6269A24.9219 24.9219 0 0 1 100.6717 324.709H150.5076A24.9219 24.9219 0 0 1 175.4255 349.6269V424.291C175.4255 442.5761 180.4449 449.209 187.8844 449.209S200.3434 431.8202 200.3434 424.291V349.6269A24.9219 24.9219 0 0 1 225.2613 324.709H275.0972A24.9219 24.9219 0 0 1 300.0151 349.6269V424.291C300.0151 431.731 300.0151 449.209 312.4741 449.209C312.2052 449.209 324.6641 449.209 324.6641 424.291zM274.5594 374.5448L274.8283 449.209A24.8731 24.8731 0 1 1 225.0821 449.209V374.5448A25.2148 25.2148 0 0 1 250 349.6269C263.5345 349.6269 274.5594 361.0103000000001 274.5594 374.5448z" />
    <glyph glyph-name="checked"
      unicode="&#xF112;"
      horiz-adv-x="500" d=" M493.0162 368.6119L167.6317 68.8429C159.4917 61.4495 146.3476 61.4495 138.5808 68.8429L6.9931 189.8259A17.9886 17.9886 0 0 0 6.9931 216.6359L45.7525 252.4827C54.0425 259.6521 66.9619 259.6521 74.7287 252.4827L138.5061 194.157C146.273 186.6889 159.4168 186.6889 167.557 194.157L425.057 431.2687A22.0339 22.0339 0 0 0 454.0332 431.2687L492.9419 395.4966A18.0157 18.0157 0 0 0 493.0166 368.6115z" />
    <glyph glyph-name="circle-account-connected"
      unicode="&#xF113;"
      horiz-adv-x="500" d=" M250 499C113.4484 499 1 386.5516 1 250S113.4484 1 250 1S499 112.6516 499 250S387.3484000000001 499 250 499zM250 386.5516C284.6608 386.5516 312.6484 359.3608 312.6484 323.9032S285.4576 261.2548 250 261.2548S187.3516 288.4456 187.3516 323.9032S215.3392 386.5516 250 386.5516zM374.5 150.4H125.5V194.1244C125.5 207.67 135.2608 220.5184 148.1092 224.3032L221.3152 239.4424C240.1396 244.7212 259.0636 244.7212 276.394 239.4424L349.6 224.3032C363.1456 220.5184 373.0060000000001 208.4668 373.0060000000001 194.1244V150.4z" />
    <glyph glyph-name="circle-arrow"
      unicode="&#xF114;"
      horiz-adv-x="500" d=" M250 499C113.4484 499 1 386.5516 1 250S113.4484 1 250 1S499 112.6516 499 250S387.3484000000001 499 250 499zM240.2392 180.5788C236.4544 175.3 228.8848 175.3 224.4028 179.0848L222.9088 180.5788A13.1676 13.1676 0 0 0 222.9088 199.4032L271.2148000000001 251.4940000000001L222.9088000000001 303.5848000000001C217.6300000000001 308.8636 217.6300000000001 317.1304 224.4028000000001 323.206L225.8968000000001 324.7000000000001C231.1756000000001 326.9908000000001 237.2512000000001 326.194 241.0360000000001 322.4092000000001L306.6724000000001 251.4940000000001z" />
    <glyph glyph-name="circle-back-top"
      unicode="&#xF115;"
      horiz-adv-x="500" d=" M250 499C113.4484 499 1 386.5516 1 250S113.4484 1 250 1S499 112.6516 499 250S387.3484000000001 499 250 499zM318.6244 251.494C313.3456 246.2152 305.776 246.2152 301.2944 250L299.8004 251.494L262.8488 291.5332V154.9816A12.7492 12.7492 0 0 0 250 142.1332C242.43 142.1332 237.9484 148.2088 237.9484 154.9816V290.7364L200.2 250.7968C194.9212 245.518 188.1484 245.518 182.87 249.3028L181.376 250.7968C176.0972 256.8724 176.0972 265.936 181.376 270.418L240.2396 335.3572000000001C245.5184 340.636 253.088 340.636 257.5696 336.8512L259.0636 335.3572000000001L317.9272000000001 270.418C323.206 265.1392 323.206 256.0756 318.6244000000001 251.494z" />
    <glyph glyph-name="circle-cancelled"
      unicode="&#xF116;"
      horiz-adv-x="500" d=" M250 499C112.6516 499 1 387.3484 1 250S112.6516 1 250 1S499 112.6516 499 250S387.3484000000001 499 250 499zM374.5 317.13V187.3516C374.5 157.1728 350.3968 132.2728 320.218 132.2728L343.624 108.8668V101.2968H312.6484L281.6728 132.97H222.8092L191.8336 101.2972H157.1728V108.8672L180.5788 132.2732C162.4516 132.2732 146.6152 141.3368000000001 136.0576 155.6792L93.8276 126.9944000000001A12.2764 12.2764 0 0 0 87.0548 124.7036000000001C83.27 124.7036000000001 79.4848 126.9944000000001 76.4972 129.9824000000001C72.7124 136.0580000000001 74.2064 143.528 79.4852 147.3124L126.2972 178.9852A29.136 29.136 0 0 0 125.5004 187.252V336.6520000000001C125.5 391.7308 187.3516 399.3 250 399.3C314.1424 399.3 366.2332 391.73 373.006 346.512L413.7424 374.4C419.818 378.1848 427.288 376.6908 431.0724 371.4120000000001C434.8571 365.3364000000001 433.3631 357.8664 428.0844 354.082z M161.4 172.7C165.9 167.4 172 163.6 179.6 163.6A23.6015 23.6015 0 0 1 203.1 187.1A25.8783 25.8783 0 0 1 200.1 198.5z M297 187.1C297 174.1213083789764 307.5213083789764 163.6 320.5 163.6C333.4786916210237 163.6 344 174.1213083789764 344 187.1C344 200.0786916210237 333.4786916210237 210.6 320.5 210.6C307.5213083789764 210.6 297 200.0786916210237 297 187.1z M156.1 337.1H234.1V274.2H156.1zM265.9 273.5L343.9 326.5V337.1H265.9zM343.9 273.5V296.2L310.6 273.5z" />
    <glyph glyph-name="circle-delay"
      unicode="&#xF117;"
      horiz-adv-x="500" d=" M250 383.3C176.5 383.3 116.7 323.5 116.7 250S176.5 116.7 250 116.7S383.3 176.5 383.3 250S323.5 383.3 250 383.3zM320.5 181.1L232.6 233.4000000000001V333.4000000000001H257.6V245.5000000000001L332.6 200.8L320.5 181.1z M250 499C112.6516 499 1 387.3484 1 250S112.6516 1 250 1S499 112.6516 499 250S387.3484000000001 499 250 499zM250 83.9668C158.6668 83.9668 83.9668 158.6668 83.9668 250S157.97 416.0332 250 416.0332S416.0332 341.3332000000001 416.0332 250S341.3332 83.9668 250 83.9668z" />
    <glyph glyph-name="circle-delete"
      unicode="&#xF118;"
      horiz-adv-x="500" d=" M250 499C113.4484 499 1 386.5516 1 250S113.4484 1 250 1S499 112.6516 499 250S387.3484000000001 499 250 499zM349.6 184.3636C358.6636000000001 175.3 358.6636000000001 159.4636000000001 349.6 150.4S324.7000000000001 141.3364 315.6364000000001 150.4L250 216.0364L184.3636 150.4C175.3 141.3364 159.4636 141.3364 150.4 150.4S141.3364 175.3 150.4 184.3636L216.0364 250L150.4 315.6364C141.3364 324.7000000000001 141.3364 340.5364 150.4 349.6S175.3 358.6636000000001 184.3636 349.6L250 283.9636000000001L315.6364 349.6C324.7 358.6636 340.5364 358.6636 349.6 349.6S358.6636 324.7 349.6 315.6364L283.9636 250z" />
    <glyph glyph-name="circle-disruption"
      unicode="&#xF119;"
      horiz-adv-x="500" d=" M250 499C112.6516 499 1 387.3484 1 250S112.6516 1 250 1S499 112.6516 499 250S387.3484000000001 499 250 499zM249.2032 110.3608C234.8608 110.3608 225.1 120.1216 225.1 134.464S234.8608 158.5672 249.2032000000001 158.5672S272.6092000000001 148.8064 272.6092000000001 134.464S262.8484000000001 110.3608 249.2032000000001 110.3608zM268.8244000000001 187.3516H229.582L225.8968 399.4H272.7088L268.8244 187.3516z" />
    <glyph glyph-name="circle-facebook"
      unicode="&#xF11A;"
      horiz-adv-x="500" d=" M250 499C113.4484 499 1 386.5516 1 250S113.4484 1 250 1S499 112.6516 499 250S387.3484000000001 499 250 499zM303.5848 250H268.924V125.5H216.8332V250H191.9332V293.7244H216.8332V322.4092C214.5424 348.8032 234.1632 372.2092 261.3544 374.5H307.37V332.27H280.1788C274.1032 332.27 268.8244000000001 328.4852 268.8244000000001 322.5092V293.824H308.8636L303.5848 250z" />
    <glyph glyph-name="circle-flux-rss"
      unicode="&#xF11B;"
      horiz-adv-x="500" d=" M250 499C112.6516 499 1 387.3484 1 250S112.6516 1 250 1S499 112.6516 499 250S387.3484000000001 499 250 499zM184.3636 150.4A33.1668 33.1668 0 1 0 217.53 183.5668C216.8332 165.5392 202.4908 150.4 184.3636 150.4zM266.6336 150.4A115.8051 115.8051 0 0 1 232.67 232.67C210.758 254.582 181.376 267.3308 150.4 267.3308V314.8400000000001A164.4592 164.4592 0 0 0 314.9392000000001 150.3H266.6332000000001zM351.0944 150.4C351.0944 261.3544 261.2552 351.094 150.4004 351.8908V399.4C287.7488 399.4 399.4004 287.7484 399.4004 150.4z" />
    <glyph glyph-name="circle-google-plus"
      unicode="&#xF11C;"
      horiz-adv-x="500" d=" M250 499C113.4484 499 1 386.5516 1 250S113.4484 1 250 1S499 112.6516 499 250S387.3484000000001 499 250 499zM268.8244000000001 315.6364C268.8244000000001 299.8 259.7608 285.4576 247.7092 275.5972000000001C235.6576 265.8364000000001 232.57 262.0516 232.57 252.988S248.4064 235.658 253.6852 230.3788C277.0912 213.0488 282.37 201.694 282.37 179.0848C282.37 151.894 252.1912 124.006 203.8852 124.006C160.1608 124.006 123.9064 141.336 123.9064 168.5272000000001S154.0852 225.8972000000001 196.3156 225.8972000000001H209.8612C203.7856 229.6820000000001 198.5068 237.2516000000001 198.5068 244.7216000000001A25.721200000000003 25.721200000000003 0 0 0 202.2916 258.2672000000001H194.7216C166.0368 256.7732000000001 141.1368 279.3824000000001 139.6428 308.0672000000001V313.3460000000001C139.6428 343.5248000000001 170.6184 370.7160000000001 208.2672 370.7160000000001H281.4732L265.6368 353.3860000000001H247.012C262.8484000000001 348.1072000000001 269.6212 332.2708000000001 268.8244000000001 315.6376000000001zM374.5 319.4212H340.5364V285.4576H323.2064000000001V319.4212H289.2424V336.7512H323.206V370.7152H340.536V336.7516H374.5V319.4216z M200.2 362.4484C180.5788 362.4484 167.73 342.8272 170.0212 317.9272C171.5152 295.318 188.8456 277.1908 212.2512 273.406C231.8724 273.406 243.2268 289.2424 239.442 315.636C236.4544 340.5364 219.0244 362.4484 200.2 362.4484zM207.77 219.0244C177.5912 219.0244 152.6912 200.2 152.6912 178.288C152.6912 155.6788 173.8064 137.5516 203.9852 137.5516C244.7216 137.5516 259.8608 154.8816 259.8608 177.5908C259.8608 179.8816 259.8608 182.8696 258.3668 185.1608C254.582 197.2124 242.5304 204.782 225.8968 216.1364C219.8212 217.5308 213.7456 219.0248 207.7696 219.0248z" />
    <glyph glyph-name="circle-information"
      unicode="&#xF11D;"
      horiz-adv-x="500" d=" M250 499C112.6516 499 1 387.3484 1 250S112.6516 1 250 1S499 112.6516 499 250S387.3484000000001 499 250 499zM274.9 125.5H225.1V274.9H274.9zM274.9 324.7H225.1V374.5H274.9z" />
    <glyph glyph-name="circle-instagram"
      unicode="&#xF11E;"
      horiz-adv-x="500" d=" M354.8788 329.9788A49.7175 49.7175 0 0 1 329.9788000000001 354.8788C322.4088000000001 357.1696 314.1424 360.1576 305.0788000000001 360.1576C291.5332000000001 361.6516000000001 286.2544000000001 361.6516000000001 250.0000000000001 361.6516000000001S209.9608000000001 361.6516000000001 194.9212000000001 360.1576C185.8576000000001 360.1576 177.5912000000001 358.6636 170.0212000000001 354.8788A49.7175 49.7175 0 0 1 145.1212000000001 329.9788C142.8304000000001 322.4088000000001 139.8424000000001 314.1424 139.8424000000001 305.0788C138.3484000000001 291.5332 138.3484000000001 286.2544000000001 138.3484000000001 250S138.3484000000001 209.9608 139.8424000000001 194.9212C139.8424000000001 185.8576 141.3364000000001 177.5912 145.1212000000001 170.0212A49.7175 49.7175 0 0 1 170.0212000000001 145.1212000000001C177.5912000000001 142.8304000000001 185.8576000000001 139.8424000000001 194.9212000000001 139.8424000000001C208.4668000000001 139.8424000000001 213.7456000000001 138.3484 250.0000000000001 138.3484S290.0392000000001 138.3484 305.0788000000001 139.8424000000001C314.1424000000001 139.8424000000001 322.4088000000001 141.3364000000001 329.9788000000001 145.1212000000001A49.7175 49.7175 0 0 1 354.8788 170.0212C357.1696 177.5912 360.1576 185.8576000000001 360.1576 194.9212C360.1576 208.4668 361.6516000000001 213.7456 361.6516000000001 250S361.6516000000001 290.0392 360.1576 305.0788C359.3608 311.8516 357.1696 320.9152000000001 354.8788 329.9788zM250 181.3756A68.4363 68.4363 0 0 0 181.3756 250C181.3756 287.6488 212.3512 318.6244 250 318.6244A68.6244 68.6244 0 0 0 250 181.3756zM322.4092 305.8756C313.3456 305.8756 306.5728 311.9512000000001 306.5728 321.0148000000001S312.6484 336.8512 321.712 336.8512S337.5484 330.7756 337.5484 321.712C336.7516 313.3456 329.9788 305.8756 322.4092 305.8756z M205.4788 250C205.4788 225.4116201958333 225.4116201958333 205.4788 250 205.4788C274.5883798041667 205.4788 294.5212 225.4116201958333 294.5212 250C294.5212 274.5883798041667 274.5883798041667 294.5212 250 294.5212C225.4116201958333 294.5212 205.4788 274.5883798041667 205.4788 250z M250 499C113.4484 499 1 386.5516 1 250S113.4484 1 250 1S499 112.6516 499 250S387.3484000000001 499 250 499zM383.5636 194.9212A91.7673 91.7673 0 0 0 377.488 162.4512C369.918 145.1212 356.3728 129.9812 339.0424 124.0056A91.3479 91.3479 0 0 0 306.5724 117.93C293.0268000000001 117.93 287.748 116.4359999999999 251.4936 116.4359999999999S210.7572 116.4359999999999 196.4148 117.93A91.7673 91.7673 0 0 0 163.9448 124.0056C146.6148 131.5756 131.4748 145.1208 125.4992 164.0448A91.3479 91.3479 0 0 0 119.4236 196.5147999999999C117.9296 210.0603999999999 117.9296 215.3392 117.9296 251.5935999999999S117.9296 292.33 119.4236 306.6724A91.7673 91.7673 0 0 0 125.4992 339.1424C133.0692 356.4724 146.6144 371.6123999999999 163.9448 377.5879999999999A91.3479 91.3479 0 0 0 196.4148 383.6635999999999C209.9604 385.1575999999999 215.2392 385.1575999999999 251.4936 385.1575999999999S292.23 385.1575999999999 306.5724 383.6635999999999A91.7673 91.7673 0 0 0 339.0424000000001 377.5879999999999C356.3724000000001 370.0179999999999 371.5124000000001 356.4727999999999 377.4880000000001 337.5487999999999A91.3479 91.3479 0 0 0 383.5636000000001 305.0787999999999C383.5636000000001 289.9396 385.0576000000001 286.2543999999999 385.0576000000001 249.9999999999999S384.2608 209.2636 383.5636 194.9212z" />
    <glyph glyph-name="circle-linkedin"
      unicode="&#xF11F;"
      horiz-adv-x="500" d=" M250 499C112.6516 499 1 387.3484 1 250S112.6516 1 250 1S499 112.6516 499 250S387.3484000000001 499 250 499zM182.0728 130.7788H128.488V291.5332H182.0728zM155.6788 313.3456C140.5396 311.0548 126.2968 322.4092 124.006 337.4488C121.7152 352.588 133.0696 366.8308 148.1092 369.1216H154.882C170.0212 371.4124 184.264 360.058 186.5548 345.0184C188.8456 329.8792 177.4912 315.6364 162.4516 313.3456H155.6788zM374.5 130.7788H320.9152000000001V216.8332C320.9152000000001 238.7452 313.3452000000001 253.0876 293.7244 253.0876C281.6728 253.0876 271.1152 245.5176 266.5336 234.2632C265.0396 230.4784 265.0396 225.9964 265.0396 221.4148V131.5756H211.4548V292.23H265.7368V269.6208C275.4976000000001 286.9508 294.4216 296.8116 314.0428 296.0148C349.5005 296.0148 375.8945 273.4056 375.8945 223.6056L374.5 130.7788z" />
    <glyph glyph-name="circle-mail"
      unicode="&#xF120;"
      horiz-adv-x="500" d=" M250 499C112.6516 499 1 387.3484 1 250S112.6516 1 250 1S499 112.6516 499 250S387.3484000000001 499 250 499zM111.1576 308.0668L193.4276 249.2032L111.1576 170.7184zM121.0176 162.4516L204.7812 240.1396L246.3144 209.9608A6.9524 6.9524 0 0 1 253.8844 209.9608L295.4176 240.14L379.1812 162.452zM388.8420000000001 171.5152L306.5720000000001 249.2032L388.8420000000001 308.0668zM388.8420000000001 324.7L250 225.1L111.1576 324.7V334.4608C111.1576 335.9548 112.6516 338.2456 114.1456 338.2456H385.0576A3.2132999999999994 3.2132999999999994 0 0 0 388.0456 335.2576L388.8424 324.7z" />
    <glyph glyph-name="circle-pinterest"
      unicode="&#xF121;"
      horiz-adv-x="500" d=" M250 499C112.6516 499 1 387.3484 1 250S112.6516 1 250 1S499 112.6516 499 250S387.3484000000001 499 250 499zM275.6968 194.9212C261.3544 194.9212 248.506 201.694 241.036 213.0484C241.036 213.0484 232.7692 179.8816 231.2752 173.8060000000001A166.9637 166.9637 0 0 0 205.5784 126.994C204.7816 126.1972 204.0844 125.5 203.2876 126.1972C202.4908 126.1972 202.4908 126.994 202.4908 127.6912000000001A165.474 165.474 0 0 0 202.4908 181.9732L219.8208 259.6612A58.3233 58.3233 0 0 0 215.3388 282.2704C215.3388 303.3856 228.1872 320.0189000000001 242.5296 320.0189000000001A18.2488 18.2488 0 0 0 262.1508 301.8917V298.1069C259.1628 280.7769 255.378 264.1432000000001 249.3024 247.5101C246.3144 235.4585 253.0872 223.4069 264.4416 220.3192C266.7324 219.5225 268.9236 219.5225 272.0116 219.5225C299.2024 219.5225 317.3296 254.1833000000001 317.3296 295.7165000000001C317.3296 326.6921000000001 296.2144 350.7953000000001 257.7688 350.7953000000001C220.0204 352.2893000000001 189.1444 323.6045000000001 186.8536 285.8561000000001V282.0713000000001A37.1694 37.1694 0 0 1 196.6143999999999 254.1833000000001A8.5752 8.5752 0 0 0 198.9051999999999 245.9165000000001L195.9171999999999 234.5621000000001C195.1203999999999 231.5741000000001 192.9291999999999 230.0801 189.8415999999999 230.7773000000001H188.3475999999999A54.8832 54.8832 0 0 0 158.9655999999999 285.0593C158.9655999999999 325.0985 192.9291999999999 374.8985 261.5535999999999 374.8985C308.3655999999999 377.8865 349.1019999999999 341.7317000000001 352.0899999999999 294.9197000000001V292.6289000000001C352.5879999999999 236.4545 321.712 194.9213 275.6968 194.9213z" />
    <glyph glyph-name="circle-print"
      unicode="&#xF122;"
      horiz-adv-x="500" d=" M336.7516 287.7484H361.6516V262.8484H336.7516z M250 499C113.4484 499 1 386.5516 1 250S113.4484 1 250 1S499 112.6516 499 250S387.3484000000001 499 250 499zM163.2484 386.5516H337.5484V323.9032H163.2484zM336.7516 112.6516H163.2484V200.2H337.5484V112.6516zM387.3484 190.4392A15.9378 15.9378 0 0 0 371.512 174.6028H350.3968V212.3512H150.4V174.6028H127.7908C120.2208 176.0968 112.6516 183.6664 112.6516 190.4392V296.0152C112.6516 305.0788 120.2216 311.1544 128.488 311.8516H371.512A15.9378 15.9378 0 0 0 387.3484000000001 296.0152V190.4392z" />
    <glyph glyph-name="circle-reverse"
      unicode="&#xF123;"
      horiz-adv-x="500" d=" M250 499C113.4484 499 1 386.5516 1 250S113.4484 1 250 1S499 112.6516 499 250S387.3484000000001 499 250 499zM286.2544 182.87H176.794L209.264 151.8944C213.0488 148.1096 214.5428 140.54 209.264 136.7552S197.9096 132.9704 193.4276 136.7552L141.3368 186.5552C137.552 190.34 136.058 197.9096 141.3368 201.6944L192.6308 251.4944000000001C197.9096 255.2792000000001 203.9852 255.2792000000001 208.4672 251.4944000000001C212.252 247.7096000000001 213.746 240.1400000000001 208.4672 236.3552L175.9972 205.3796000000001H285.358A11.614100000000002 11.614100000000002 0 0 0 296.7124 194.0252000000001C297.5092 186.6552 292.2304 181.376 286.2544 182.8700000000001zM358.6636 299.8L305.8756 250C300.5968000000001 246.2152 294.5212 246.2152 290.0392 250C286.2544 253.7848 284.7604 261.3544 290.0392 265.1392L322.5092 296.1148H212.2516A11.3544 11.3544 0 0 0 212.2516 318.8236H321.7116L289.2424 349.6C285.4576 353.3848 283.9636 360.9544 289.2424 364.7392S300.5968 368.524 305.0788 364.7392L357.1696 314.9392A10.2328 10.2328 0 0 0 358.6636000000001 299.8C359.3608000000001 301.294 359.3608000000001 299.8 358.6636000000001 299.8z" />
    <glyph glyph-name="circle-tooltip"
      unicode="&#xF124;"
      horiz-adv-x="500" d=" M250 499C112.4524 499 1 387.5476 1 250S112.4524 1 250 1S499 112.4524 499 250S387.5476 499 250 499zM267.33 117.7312A24.7732 24.7732 0 1 0 274.8 135.46A24.1694 24.1694 0 0 0 267.33 117.7312zM325.9944 293.7244A76.8642 76.8642 0 0 0 314.142 273.3064L291.234 249.6016L287.4492 246.1156C283.3656 242.3308 280.1784 239.044 277.6884 236.3548A37.081399999999995 37.081399999999995 0 0 1 271.9116 227.9884A33.7358 33.7358 0 0 1 269.0232 218.2276A98.88999999999999 98.88999999999999 0 0 1 268.2264 204.8812V188.0489H231.574V211.3552A83.91619999999999 83.91619999999999 0 0 0 233.068 228.586A45.2318 45.2318 0 0 0 237.6497 241.036A46.82719999999999 46.82719999999999 0 0 0 245.8168000000001 251.6932C249.2032000000001 255.0796 253.486 259.2632 258.5656 264.1432Q264.6910000000001 269.8204 270.8164000000001 275.7964A114.77330000000002 114.77330000000002 0 0 1 281.8720000000001 288.0472A64.0215 64.0215 0 0 1 290.0392000000001 301.3936A36.9157 36.9157 0 0 1 293.326 317.23A39.7485 39.7485 0 0 1 290.0392 333.4648A41.5459 41.5459 0 0 1 281.4736 346.2136A38.3233 38.3233 0 0 1 268.7248 354.58A40.4411 40.4411 0 0 1 252.8885 357.6676C240.4385 357.6676 230.2793 353.6836 222.5105 345.8152S210.0605 327.5884 208.5665 314.8396L169.6228 318.6244000000001C172.9097 340.7356 182.1728 358.1656000000001 197.3117 370.7152S231.1757 389.6392 253.5857 389.6392A91.83 91.83 0 0 0 283.5657 384.8584A72.2731 72.2731 0 0 0 307.7685 371.1136A63.77400000000001 63.77400000000001 0 0 0 324.0033 349.0024C327.9873 340.2376000000001 329.8797 330.178 329.8797 319.0224000000001A64.6978 64.6978 0 0 0 325.9953 293.7240000000001z" />
    <glyph glyph-name="circle-twitter"
      unicode="&#xF125;"
      horiz-adv-x="500" d=" M250 499C113.4484 499 1 386.5516 1 250S113.4484 1 250 1S499 112.6516 499 250S387.3484000000001 499 250 499zM349.6 301.294V295.2184C349.6 214.4428 283.9636000000001 149.6032 203.9848 149.6032C176.7940000000001 149.6032 148.906 157.1732 125.5 173.0092H137.5516C160.1608000000001 173.0092 182.0728 180.5792 200.8972 195.6184C178.288 195.6184 160.1608 210.7576 153.388 231.8728C157.1728 231.8728 159.4636000000001 230.3788 163.1488 230.3788C168.4276 230.3788 172.2124 231.8728 176.6944 231.8728C154.0852000000001 236.3548 136.6552 257.5696 136.6552 280.876C144.2252 277.0912 151.7944 274.8004 160.0612000000001 274.8004C137.4520000000001 289.9396 131.3764000000001 319.3216 144.2248000000001 343.4248A146.3549 146.3549 0 0 1 249.9 289.8400000000001C243.8244 317.0308 261.2544000000001 344.9188000000001 288.3456 350.9944000000001C305.6756 354.7792 324.6 349.5004 336.6516 335.8552C348.006 338.146 359.2608 341.9308000000001 369.1216 348.7036000000001C365.3368 335.8552 357.7672 326.0944 346.5124 320.0188000000001C356.2732 321.5128000000001 366.1336 323.8036 375.1972 329.0824C368.4244 317.1304 359.3608 308.8636 349.6 301.2940000000001z" />
    <glyph glyph-name="circle-works"
      unicode="&#xF126;"
      horiz-adv-x="500" d=" M122 296.2C119.7 292.4 119 287.9 118.2 283.3L127.3 279.5L149.3 318.9C137.1 315.2 127.3 307.6 122 296.2zM164.4 264.4L181.8 257.6A56.4647 56.4647 0 0 0 172.7 279.6L164.4 264.4z M250 499C112.6516 499 1 387.3484 1 250S112.6516 1 250 1S499 112.6516 499 250S387.3484000000001 499 250 499zM195.718 389.6392A23.406 23.406 0 1 0 172.312 366.2332C171.5152 378.982 182.0728 389.6392 195.718 389.6392zM422.806 136.0576H235.6576V138.3484C236.4544 142.1332 236.4544 145.9184 238.6456 150.4A45.8422 45.8422 0 0 0 243.1276 156.4756C244.6216 158.7664 246.9124 160.2604 247.6096 162.5512L248.4064 163.348L249.2032 164.1448C252.988 164.9416000000001 255.976 167.9296000000001 258.964 170.9176000000001A44.638 44.638 0 0 0 268.0276 178.4876000000001A23.451099999999997 23.451099999999997 0 0 1 274.8004 183.7663000000001L265.7368 191.3363000000001L264.94 195.8183000000001L275.4976 207.8699000000001L206.8732 235.7579000000001H205.3792A13.0757 13.0757 0 0 0 197.8092 238.0486000000001C195.5184 239.5426000000001 194.0244 241.0366000000001 192.5304 241.8334000000001L162.352 253.8844C172.9096 238.7452 178.9852 224.5024 181.1764 211.6544C186.4552 184.4636 182.6704 163.3484 181.9732 159.5636A15.440000000000001 15.440000000000001 0 0 0 166.834 147.512H163.846A15.084299999999999 15.084299999999999 0 0 0 151.7944 164.842A111.4758 111.4758 0 0 1 150.9976 205.5784C149.5036 213.8452 144.922 222.9084 140.44 230.4784C138.1492 218.4268 135.1612 207.0724 128.3884 198.0084C117.034 182.1719999999999 100.5004 164.0448 93.7276 157.2719999999999L92.9308 156.4751999999999C87.652 150.3995999999999 77.0944 150.3995999999999 71.0188 155.6783999999999A14.5935 14.5935 0 0 0 70.222 176.7935999999999C75.5008 182.0723999999999 92.134 200.1995999999999 102.692 214.5419999999999C107.174 221.3147999999999 109.4648 234.9599999999999 110.9588 244.7207999999999L111.7556 247.7087999999999C111.7556 248.5055999999999 111.7556 249.9995999999999 112.5524 250.6967999999999C113.3492 254.4815999999999 114.0464 258.2667999999999 116.3372 262.0511999999999L117.134 263.5451999999999L120.122 268.8239999999999L114.0464 273.306A15.9879 15.9879 0 0 0 107.9708 272.5091999999999H106.4768C99.704 273.306 94.4252 280.0791999999999 95.9192 286.8515999999999A59.38120000000001 59.38120000000001 0 0 0 101.9948 305.676C113.3492 328.2851999999999 138.2492 343.4243999999999 163.8464 343.4243999999999A70.9693 70.9693 0 0 0 194.0252 336.6515999999999A7.576600000000001 7.576600000000001 0 0 0 198.5072 332.8667999999999A11.7384 11.7384 0 0 0 200.798 317.0304C194.7224 308.7636 192.5312 296.6123999999999 194.7224 285.3576C197.0132 274.0032 202.9892 264.2423999999999 212.0524 258.1668A11.62 11.62 0 0 0 217.3312 246.1152L284.4612 218.9243999999999L296.5128 233.2668L301.7916 234.0636L308.5644 228.7848C310.8552 230.2788 313.0464 231.0756 315.3372 232.5696A33.0472 33.0472 0 0 1 322.11 236.3544L323.6040000000001 237.1512C325.0980000000001 237.9480000000001 325.0980000000001 238.6452000000001 325.8948000000001 238.6452000000001H328.8828000000001C330.3768000000001 238.6452000000001 331.8708000000001 240.1392000000001 333.3648000000001 241.6332000000001C335.6555000000001 243.9240000000001 337.1495000000001 246.1152000000001 340.9348000000001 246.1152000000001C342.4288000000001 246.1152000000001 343.9228000000001 246.9120000000001 345.4168000000001 246.9120000000001C347.7075000000001 246.9120000000001 349.8988000000001 247.7088 351.4924000000001 247.7088A11.3592 11.3592 0 0 1 355.9744000000001 249.2028C357.4684000000002 249.9996 358.9624000000001 249.9996 360.4564000000002 250.6968C368.0264000000002 252.9876 376.2928000000002 249.2028 380.8744000000002 242.43C387.6472000000002 231.0756 404.2804000000002 201.6936 431.4712000000002 154.8816C432.9652000000002 152.5908 435.2559000000002 146.6148 432.2679000000002 142.0332C430.3755000000002 137.5512 427.2879000000002 136.854 422.8059000000002 136.0572z" />
    <glyph glyph-name="clock"
      unicode="&#xF127;"
      horiz-adv-x="500" d=" M250 499C112.6516 499 1 387.3484 1 250S112.6516 1 250 1S499 112.6516 499 250S387.3484000000001 499 250 499zM412.9456 202.4908H409.9576L237.1516 227.3908C235.6576 227.3908 234.1636 228.8848 233.3668 230.3788L170.0212 360.1576C164.7424 370.7152 168.5272 384.2608 179.782 389.5396A21.0528 21.0528 0 0 0 189.5428 391.8304A21.742900000000002 21.742900000000002 0 0 0 209.164 379.7788000000001L262.8484000000001 271.9120000000001A7.5279 7.5279 0 0 1 266.6332000000001 268.924L416.0332000000001 247.012C426.5908000000001 245.518 434.8576000000001 235.6576 434.8576000000001 225.1V222.112C433.3636000000001 210.7576 424.3000000000002 203.1880000000001 412.9456000000002 202.4908z" />
    <glyph glyph-name="close-circle"
      unicode="&#xF128;"
      horiz-adv-x="500" d=" M250 499C113.4484 499 1 386.5516 1 250S113.4484 1 250 1S499 112.6516 499 250S387.3484000000001 499 250 499zM349.6 184.3636C358.6636000000001 175.3 358.6636000000001 159.4636000000001 349.6 150.4S324.7000000000001 141.3364 315.6364000000001 150.4L250 216.0364L184.3636 150.4C175.3 141.3364 159.4636 141.3364 150.4 150.4S141.3364 175.3 150.4 184.3636L216.0364 250L150.4 315.6364C141.3364 324.7000000000001 141.3364 340.5364 150.4 349.6S175.3 358.6636000000001 184.3636 349.6L250 283.9636000000001L315.6364 349.6C324.7 358.6636 340.5364 358.6636 349.6 349.6S358.6636 324.7 349.6 315.6364L283.9636 250z" />
    <glyph glyph-name="close"
      unicode="&#xF129;"
      horiz-adv-x="500" d=" M329.182 250L483.1636 403.8822C504.2788 424.9974 504.2788 461.949 483.1636 483.0642S425.0968 504.1794 403.9816 483.0642L250 329.1822L96.118 483.1638C75.0028 504.279 38.0512 504.279 16.936 483.1638S-4.1792 425.097 16.936 403.9818L170.818 250L16.8364 96.1182C-4.2788 75.003 -4.2788 38.0514 16.8364 16.9362S74.9032 -4.179 96.0184 16.9362L250 170.8182L403.882 16.9362C424.9972 -4.179 461.9488 -4.179 483.064 16.9362S504.1792 75.003 483.064 96.1182z" />
    <glyph glyph-name="disabled-service"
      unicode="&#xF12A;"
      horiz-adv-x="500" d=" M232.8788 424.1082A36.6526 36.6526 0 1 1 196.2754 460.81A36.6813 36.6813 0 0 1 232.8788 424.1082zM232.8788 69.5867A122.76539999999999 122.76539999999999 0 0 1 331.0782000000001 118.6867C331.1766000000001 118.7851000000001 331.2750000000001 118.8835 331.2750000000001 118.9818A4.117 4.117 0 0 1 331.1766 119.6706C330.0942 125.5744 322.4194 166.2120000000001 320.6482000000001 174.6741000000001C320.5498 175.2641000000001 320.1562 175.0677000000001 320.0582000000001 174.6741000000001A89.0052 89.0052 0 1 0 181.91 265.3951V304.2616A117.67999999999999 117.67999999999999 0 0 1 161.7388 292.4541A12.055 12.055 0 0 1 161.9356 294.3236A79.92 79.92 0 0 0 197.063 360.4458V252.9972A22.0494 22.0494 0 0 1 218.7102 230.6612L262.3981 230.0712000000001H263.48C286.6031000000001 230.0712000000001 312.6781000000001 226.8242 319.4674 222.8883C324.4856 216.3942 333.1445 190.4176 338.3595000000001 165.9169L346.3295000000001 121.5402A22.1025 22.1025 0 0 1 367.9767000000001 103.3369A18.4159 18.4159 0 0 1 371.9125 103.7305A21.9931 21.9931 0 0 1 389.6238 129.3135L381.5553 174.0835C381.5553 174.2803 381.4569 174.5755 381.4569 174.7723C377.5211 193.2708 366.5991 238.041 350.2653 254.4732C333.5381 271.2 291.7200000000001 274.054 265.94 274.054V335.65A113.4015 113.4015 0 0 1 359.0228 315.5772A16.9481 16.9481 0 0 1 351.5447000000001 348.6383A79.65 79.65 0 0 0 260.8234000000001 394.9829000000001C256.9858 405.5113 248.13 408.07 241.5376 407.9712C178.9576 407.9712 127.9884 357.002 127.9884 294.3236A16.9532 16.9532 0 0 1 144.4206 277.3994A122.98590000000002 122.98590000000002 0 0 1 109.9819 192.3851C109.9819 124.6885 165.0838 69.5866 232.8788 69.5866z M25.9 51.8H474.1A24.9 24.9 0 1 0 474.1 2H25.9A24.9 24.9 0 1 0 25.9 51.8z" />
    <glyph glyph-name="distribution"
      unicode="&#xF12B;"
      horiz-adv-x="500" d=" M187.2353 288.7247C198.6285 300.1179 199.0501 319.0128000000001 187.6482 330.4147000000001L154.0922 363.9794A93.7261 93.7261 0 0 1 87.7007 391.4214L30.1638 391.3514A29.200000000000003 29.200000000000003 0 0 1 1 362.1524V361.5638A29.2041 29.2041 0 0 1 30.1989 332.3561H88.2542A33.9815 33.9815 0 0 0 112.2879 322.4035L145.9668 288.7247A29.1863 29.1863 0 0 1 187.2353 288.7247M265.4944 211.3089C254.0924 199.9069 253.6795 181.0119 265.0727 169.61L299.3227 135.3689A93.73860000000002 93.73860000000002 0 0 1 365.275 107.918L377.555 107.8741A13.678 13.678 0 0 0 391.18 94.1882V64.8576A8.4906 8.4906 0 0 1 404.8132 58.1025L493.2356 125.5393A14.6411 14.6411 0 0 1 493.2356 148.8264L404.8132 216.2632A8.4907 8.4907 0 0 1 391.18 209.5081V180.4058A13.6837 13.6837 0 0 0 377.5026 166.72H365.4154A34.0266 34.0266 0 0 0 341.3817 176.6814000000001L306.7628 211.3090000000001A29.202099999999998 29.202099999999998 0 0 1 265.4944 211.3090000000001M30.1989 166.8341H88.2542A33.99 33.99 0 0 1 112.2879 176.7955L299.3314 363.8300000000001A93.7025 93.7025 0 0 0 365.2749 391.2808L377.5549 391.3247A13.6762 13.6762 0 0 1 391.18 405.002V434.3415A8.4852 8.4852 0 0 0 404.8132 441.0878L493.2356 373.651A14.632299999999999 14.632299999999999 0 0 0 493.2356 350.3727L404.8132 282.9358A8.4875 8.4875 0 0 0 391.18 289.6821V318.7932A13.6761 13.6761 0 0 1 377.5026 332.4700000000001H365.4154A34.0181 34.0181 0 0 1 341.3817 322.5174L154.0922 135.22A93.71999999999998 93.71999999999998 0 0 0 87.7007 107.7691L30.1638 107.8482C14.0534 107.8653 1 121.5249 1 137.6352A29.196599999999997 29.196599999999997 0 0 0 30.1989 166.8341" />
    <glyph glyph-name="document"
      unicode="&#xF12C;"
      horiz-adv-x="500" d=" M424.252 48.808V382.468A9.042 9.042 0 0 1 421.264 389.44L311.704 497.008A14.3953 14.3953 0 0 1 304.7320000000001 499H124.456C97.564 499 76.648 478.084 76.648 451.192V48.808A47.8186 47.8186 0 0 1 124.456 1H377.44C403.336 1 424.252 21.916 424.252 48.808zM274.852 70.72H107.524V103.588H274.852zM397.36 162.352H107.524V196.216H397.36zM397.36 252.988H107.524V286.852H397.36zM290.788 362.548V472.108L401.344 362.548z" />
    <glyph glyph-name="document2"
      unicode="&#xF12D;"
      horiz-adv-x="500" d=" M265.936 499H89.644A32.0927 32.0927 0 0 1 57.772 467.128V32.872A31.4643 31.4643 0 0 1 89.644 1H410.356A31.4643 31.4643 0 0 1 442.228 32.872V324.7C442.228 331.6720000000001 439.24 337.648 434.26 342.628L286.852 490.036Q277.888 499 265.936 499zM388.444 43.828H110.56A9.9808 9.9808 0 0 0 100.6 53.788V446.212A9.9808 9.9808 0 0 0 110.56 456.172H253.984A24.6581 24.6581 0 0 0 278.884 431.272V346.612A13.1843 13.1843 0 0 1 291.832 333.664H379.48A19.978600000000004 19.978600000000004 0 0 0 399.4000000000001 313.7440000000001V52.792C399.4 48.808 394.42 43.828 388.444 43.828z M351.592 247.012A19.978600000000004 19.978600000000004 0 0 0 331.672 227.092H174.304A19.92 19.92 0 0 0 174.304 266.932H331.6720000000001A19.978600000000004 19.978600000000004 0 0 0 351.592 247.012zM238.048 350.596A19.978600000000004 19.978600000000004 0 0 0 218.128 330.676H173.308A19.92 19.92 0 1 0 173.308 370.516H218.128C230.08 369.52 238.048 360.5560000000001 238.048 350.596zM302.788 145.42A19.978600000000004 19.978600000000004 0 0 0 282.868 125.5H174.304A19.92 19.92 0 0 0 174.304 165.34H282.868A19.978600000000004 19.978600000000004 0 0 0 302.788 145.42z" />
    <glyph glyph-name="download"
      unicode="&#xF12E;"
      horiz-adv-x="500" d=" M222.3 105.5A40.086 40.086 0 0 1 278.3 105.5L418.5 245.7C433.7 260.9 433.7 286.6 418.5 301.8S377.6 317 362.4 301.8L289.7 229.1V457.6A39.4 39.4 0 1 1 210.9 457.6V229.7L138.2 302.4C123 317.6 97.3 317.6 82.1 302.4S66.9 261.5 82.1 246.3L222.3 105.5z M25.9 51.8H474.1A24.9 24.9 0 1 0 474.1 2H25.9A24.9 24.9 0 1 0 25.9 51.8z" />
    <glyph glyph-name="eco-consumption"
      unicode="&#xF12F;"
      horiz-adv-x="500" d=" M497.5176 462.158A16.55 16.55 0 0 1 486.6607 474.4094C369.924 511.5619 247.7091 510.4663 140.0364 444.7272C60.5518 395.9209 -9.6695 297.3122 58.9582 210.7557L60.0538 209.6601A10.9059 10.9059 0 0 0 61.1495 208.664C65.9305 203.385 84.955 222.4095 84.955 222.4095S130.375 261.1557 155.7739 276.4948C79.5763 205.9748 22.8017 106.7683999999999 1.1874 14.4348C-1.0039 4.3748 15.7297 -5.1874 20.1123 5.9684C36.8459 53.679 55.7708 100.3936 82.2657 143.4229C156.87 104.1787 234.7605 100.3937 302.89 158.7621C388.3508 231.9715 366.637 424.0094 488.8519 442.0378C499.1112 443.6315 500.7049 453.6915999999999 497.5175 462.1578z" />
    <glyph glyph-name="external-link"
      unicode="&#xF130;"
      horiz-adv-x="500" d=" M457.4668 499H250A41.8959 41.8959 0 0 1 208.4668 457.4668A41.83 41.83 0 0 1 250 415.9336H357.17L179.0848 237.9484C163.2484 222.112 163.2484 195.7184 179.0848 179.0848A41.8427 41.8427 0 0 1 237.8488 179.0848L415.9336 357.17V250A41.533199999999994 41.533199999999994 0 0 1 499 250V457.4668A41.83 41.83 0 0 1 457.4668 499z M374.5 1H42.5332A41.83 41.83 0 0 0 1 42.5332V374.5A41.8959 41.8959 0 0 0 42.5332 416.0332A41.83 41.83 0 0 0 84.0664 374.5V83.9668H374.5A41.8959 41.8959 0 0 0 416.0332 42.4336C416.0332 19.8244 397.1092 1 374.5 1z" />
    <glyph glyph-name="facebook"
      unicode="&#xF131;"
      horiz-adv-x="500" d=" M288.5461 1.0037V228.0189H364.7116000000001L376.14 316.5163H288.5461V373.0069C288.5461 398.6238 295.6289000000001 416.0783 332.4023000000001 416.0783L379.2258000000001 416.0974V495.2532A634.8357000000001 634.8357000000001 0 0 1 310.9777000000001 498.718A106.6065 106.6065 0 0 1 197.1657 381.7743V316.5163H120.7742V228.0189000000001H197.1657V1.0037z" />
    <glyph glyph-name="favorite-on"
      unicode="&#xF132;"
      horiz-adv-x="500" d=" M498.03 311.0512C496.02 319.0912 488.9851 324.1159 481.95 325.1212L334.2182 347.23L267.89 486.9225A19.597 19.597 0 0 1 231.7108 486.9225L165.3818 347.23L17.65 325.1209C10.6151 324.116 3.58 318.0861 1.57 311.0509A24.823 24.823 0 0 1 6.5949 288.9414000000001L113.1229 180.404L87.9984 26.6422A23.6637 23.6637 0 0 1 96.0384 5.5377A19.3131 19.3131 0 0 1 108.0984 1.5177C111.1133 1.5177 114.1284 2.5226 117.1432 3.5277L249.8 76.8912L381.4522 4.5327A18.17 18.17 0 0 1 402.5568 6.5427A23.6639 23.6639 0 0 1 410.5968000000001 27.6473L385.4721 181.4089L493.0049 288.9417A24.823 24.823 0 0 1 498.0298 311.0512" />
    <glyph glyph-name="file"
      unicode="&#xF133;"
      horiz-adv-x="500" d=" M499 354.0642000000001A45.1772 45.1772 0 0 1 453.8243 399.24H240.711A44.111 44.111 0 0 0 206.45 415.5638L184.8583 442.2089A44.0989 44.0989 0 0 1 150.6207 458.5329H45.274A44.2962 44.2962 0 0 1 1 414.2351V354.0642000000001zM499 312.4713V85.9049A44.301300000000005 44.301300000000005 0 0 0 454.7022 41.6071H45.274A44.2962 44.2962 0 0 0 1 85.9049V312.4713000000001z" />
    <glyph glyph-name="filters"
      unicode="&#xF134;"
      horiz-adv-x="500" d=" M106.6925 79.1461C106.6925 98.9718 121.7087 114.1326 141.3453 114.1326S175.9982 98.9718 175.9982 79.1461A34.6544 34.6544 0 1 0 106.6925 79.1461zM214.6939 100.7211C205.4531 133.3752 175.9982 157.2826 141.3453 157.2826S77.2376 133.3752 67.9968 100.7211H22.3705A21.4183 21.4183 0 0 1 1.0013 79.1461C1.0013 66.9009 10.242 57.5711 22.3705 57.5711H67.9968C77.2376 24.9171 106.6925 1.0155 141.3453 1.0155S205.4531 24.9170999999999 214.6939 57.5711H477.6064A21.422100000000004 21.422100000000004 0 0 1 498.9756 79.1461C498.9756 91.3972 489.7349 100.7211 477.6064 100.7211zM175.9982 420.8475C175.9982 401.0218 160.982 385.861 141.3453 385.861S106.6925 402.188 106.6925 420.8475S122.8638 455.834 141.3453 455.834A34.9178 34.9178 0 0 0 175.9982 420.8475zM67.9968 399.2725C77.2376 366.6184 106.6925 342.711 141.3453 342.711S205.4531 366.6184 214.6939 399.2725H477.6064A21.421999999999997 21.421999999999997 0 0 1 498.9756 420.8475C498.9756 433.0928 489.7349 442.4225 477.6064 442.4225H214.6939C205.4531 475.0765 175.9982 498.984 141.3453 498.984S77.2376 475.0765 67.9968 442.4225H22.3705A21.421999999999997 21.421999999999997 0 0 1 1.0013 420.8475C1.0013 408.6022 10.242 399.2725 22.3705 399.2725zM325.7114000000001 249.9968C325.7114000000001 269.8225 340.7276000000001 284.9833 360.3642000000001 284.9833S395.0171000000001 269.8225 395.0171000000001 249.9968A34.6544 34.6544 0 1 0 325.7114000000001 249.9968zM433.5874 271.5718C424.3466 304.2259 394.8917 328.1333 360.2389 328.1333S296.1311 303.6433 286.3128 271.5718H22.3705A21.576 21.576 0 0 1 22.3705 228.4218H286.3128C295.5536 195.7677 325.0085 171.8603 359.6613 171.8603S423.7691 195.7677 433.0099 228.4218L477.6064 228.4276000000001A21.422100000000004 21.422100000000004 0 0 1 498.9756 250.0026000000001A20.5882 20.5882 0 0 1 478.1839 271.5776z" />
    <glyph glyph-name="free-bike"
      unicode="&#xF135;"
      horiz-adv-x="500" d=" M107.6 77A100.5951 100.5951 0 0 1 203.8 148.7L236.4 145.7C253.4 144.2 268.6 157.7 270.5 175.9C270.6 176.9 270.7 178.9 270.7 178.9A9.702 9.702 0 0 1 270.6 180.6A124.95509999999999 124.95509999999999 0 0 0 336.9 287.7L345.3 266.3A102.20489999999998 102.20489999999998 0 1 1 368.2 275L356.2 305.4L334.5 369A12.391200000000001 12.391200000000001 0 0 1 322.9 377.3L268.7 377.5A12.249999999999998 12.249999999999998 0 1 1 268.7 353S301.8 352.9 314.1 352.8C316.8 344.9 323.8 324.8 328.5 311A149.6358 149.6358 0 0 1 250.2 212.4C239.2 211.5 214.6999999999999 209 203.2999999999999 207.8C200.6 216 161.5 310 161.5 310H173.8A12.3 12.3 0 1 1 173.8 334.6H113.4A12.3 12.3 0 1 1 113.4 310H135L151.6 267.7A99.01189999999998 99.01189999999998 0 0 1 107.5 278C52.2 278 7.1 232.9 7.1 177.5A100.6343 100.6343 0 0 1 107.6 77zM382.6 171.7A12.3209 12.3209 0 0 1 405.5 180.8L378.5 249.4A71.472 71.472 0 0 0 392.5 250.8A73.4808 73.4808 0 1 0 355.6 240.7L382.6 171.7zM107.6 250.6A73.3858 73.3858 0 0 0 175.5 204.7L175 204.6L108.2 197.2C98.6 196.1 91.2 187.4 91.1 177.2C90.9 167 98 158.5 107.6 157.6L174.2 151.4L176 151.2A73.1794 73.1794 0 1 0 107.6 250.6z M25.9 51.8H474.1A24.9 24.9 0 1 0 474.1 2H25.9A24.9 24.9 0 1 0 25.9 51.8z" />
    <glyph glyph-name="instagram"
      unicode="&#xF136;"
      horiz-adv-x="500" d=" M250 454.1351C316.486 454.1351 324.361 453.8816 350.6172000000001 452.6837C374.8943000000001 451.5759 388.079 447.5197 396.8531000000001 444.1098A77.1468 77.1468 0 0 0 425.4831000000001 425.4837A77.1463 77.1463 0 0 0 444.11 396.8531C447.5200000000001 388.079 451.5761 374.8943 452.6839 350.6175C453.8818 324.361 454.1353 316.486 454.1353 250S453.8818 175.639 452.6839 149.3828C451.5761 125.1057 447.5199 111.921 444.11 103.1469A82.46 82.46 0 0 0 396.8531 55.89C388.079 52.48 374.8943 48.4239 350.6172 47.3161C324.3648 46.1182 316.4905 45.8647 250 45.8647S175.6352 46.1182 149.3828 47.3161C125.1057 48.4239 111.921 52.4801 103.1469 55.89A77.1456 77.1456 0 0 0 74.5169 74.5161A77.1472 77.1472 0 0 0 55.89 103.1469C52.48 111.921 48.4239 125.1057 47.3161 149.3825C46.1184 175.639 45.8649 183.514 45.8649 250S46.1184 324.361 47.3163 350.6172000000001C48.4241 374.8943 52.4803 388.079 55.8902 396.8531A77.1468 77.1468 0 0 0 74.5163 425.4831A77.1475 77.1475 0 0 0 103.1469 444.11C111.921 447.52 125.1057 451.5761 149.3825 452.6839C175.639 453.8816 183.514 454.1351 250 454.1351M250 499C182.3756 499 173.8961 498.7136 147.3377 497.5019C120.834 496.2925 102.7341 492.0833 86.8952 485.9278A122.0553 122.0553 0 0 1 42.7922 457.2078A122.0553 122.0553 0 0 1 14.0722 413.1048C7.9167 397.2659 3.7075 379.166 2.4981 352.6623C1.2864 326.1039 1 317.6246 1 250S1.2864 173.8961 2.4981 147.3377C3.7075 120.834 7.9167 102.7341 14.0722 86.8952A122.05700000000002 122.05700000000002 0 0 1 42.7922 42.7922A122.054 122.054 0 0 1 86.8952 14.0722C102.7341 7.9166999999999 120.834 3.7075 147.3377 2.4981C173.8961 1.2862 182.3756 1 250 1S326.1039 1.2862 352.6623 2.4981C379.166 3.7075 397.2659 7.9167 413.1048 14.0722A127.3239 127.3239 0 0 1 485.9278 86.8952C492.0833 102.7341 496.2925 120.834 497.5019 147.3377C498.7136 173.8961 499 182.3755 499 250S498.7136 326.1039 497.5019 352.6623C496.2925 379.166 492.0833 397.2659 485.9278 413.1048A122.054 122.054 0 0 1 457.2078 457.2078A122.0553 122.0553 0 0 1 413.1048 485.9278C397.2659 492.0833 379.166 496.2925 352.6623 497.5019C326.1039 498.7136 317.6245 499 250 499z M250 377.8649000000001A127.86490000000002 127.86490000000002 0 1 1 377.8649 250A127.86490000000002 127.86490000000002 0 0 1 250 377.8649000000001zM250 167A83.00000000000001 83.00000000000001 0 1 0 333 250A83.00000000000001 83.00000000000001 0 0 0 250 167z M353.0368000000001 382.9168C353.0368000000001 366.4145316750559 366.4145316750559 353.0368 382.9168 353.0368C399.4190683249442 353.0368 412.7968 366.4145316750559 412.7968 382.9168C412.7968 399.4190683249441 399.4190683249442 412.7968 382.9168 412.7968C366.4145316750559 412.7968 353.0368000000001 399.4190683249441 353.0368000000001 382.9168z" />
    <glyph glyph-name="itinerary-bike"
      unicode="&#xF137;"
      horiz-adv-x="500" d=" M396.0134 302.0842A105.9461 105.9461 0 0 1 371.3166 299.0048000000001L359.0606 330.1683000000001L336.5806 395.2667A12.5311 12.5311 0 0 1 324.7557 403.7043L269.265 403.9506A12.594700000000001 12.594700000000001 0 0 1 269.2034 378.7612000000001S303.1384 378.6380000000001 315.7023 378.5764000000001C318.4738 370.5084000000001 325.6796 349.8148000000001 330.4218 335.7728A153.1863 153.1863 0 0 1 250.1728 234.7686C238.9022 233.7832 213.7128 231.258 202.0728 230.0879C199.3628 238.5254 159.2692 334.9721 159.2692 334.9721H171.8947A12.6256 12.6256 0 1 1 171.8331 360.2232H109.8759A12.6256 12.6256 0 1 1 109.8759 334.9721H132.2323L149.2923 291.5521A103.03360000000002 103.03360000000002 0 1 1 202.6275 169.4849L236.0081 166.4055C253.4375 164.8042 269.0809000000001 178.6614999999999 270.9901 197.3842C271.1133 198.3696 271.1748 200.4636 271.1748 200.4636A7.035499999999999 7.035499999999999 0 0 1 271.0517 202.1265A127.9217 127.9217 0 0 0 339.0447 311.8765L347.7286 289.9512A103.0152 103.0152 0 1 1 499.05 198.9244C498.9884 255.8316 452.7975 302.0844 396.0134 302.0844zM104.025 123.9719A75.0142 75.0142 0 1 0 173.5578 226.8853000000001L173.0651 226.7621000000001L104.5177 219.1868C94.6636 218.0783 87.0883 209.148 86.9652 198.7396C86.7804 188.3929 94.0478 179.5242 103.7787 178.6004L172.0181 172.2568L173.8041 172.0721A74.5777 74.5777 0 0 0 104.025 123.9719zM396.0134000000001 123.9719A74.9229 74.9229 0 0 0 358.0752000000001 263.5919L385.8513000000001 193.0737A12.58 12.58 0 0 1 409.2548000000001 202.3119L381.54 272.6452A74.1055 74.1055 0 0 0 395.8900000000001 274.0617A75.045 75.045 0 0 0 396.0131000000001 123.9717z" />
    <glyph glyph-name="itinerary-bullet"
      unicode="&#xF138;"
      horiz-adv-x="500" d=" M250 0C112.2 0 0 112.1 0 250S112.2 500 250 500S500 387.8 500 250S387.9 0 250 0zM250 384.6C175.8 384.6 115.4 324.2000000000001 115.4 250.0000000000001S175.8 115.4 250 115.4S384.6 175.8 384.6 250S324.2 384.6 250 384.6z" />
    <glyph glyph-name="itinerary-bus-2"
      unicode="&#xF139;"
      horiz-adv-x="507.2" d=" M16 346.1C21.3 345.3 26.4 346.8 30.4 350C8.1 190.6 28.4 104.9 29.4 100.7C31.9 86.2 38.5 77.8 49.2 74.6C49.2 63.1 49.3 25.4999999999999 49.3 25.4999999999999C49.3 11.3999999999999 60.8 -0.1000000000001 74.9 -0.1000000000001H94.9C109 -0.1000000000001 120.5 11.3999999999999 120.5 25.4999999999999C120.5 25.4999999999999 120.4 60.1999999999999 120.4 73.1999999999999H383.4V25.5999999999999C383.4 11.4999999999999 394.9 -0.1000000000001 409 -0.1000000000001L432.8 -1e-13C446 -1e-13 454.6 9.9999999999999 454.6 25.6V74.9C467.2 78.3 476.5 88.3 478.3 101.8L478.1 100.8C478.7 103.4 487.5 140.4 487.5 209.5C487.5 246.9 484.9 293.9 477.1 350C481.1 347 486.1 345.4 491.5 346.2C501.7 347.8 508.7 357.5 507.1 367.7L501.5 402.8C499.9 413 490.2 420 480.1 418.4C474.5 417.5 470 414.2 467.2 409.8C465.7 417.8 464.2 425.9 462.4 434.1V434.2C457.9 457 435.4 499.7 380.9 499.9H254.7L126.4 500C71.7 499.8 49.2 456.8 45 434.2C43.3 425.9 41.7 417.8 40.2 409.8C37.4 414.3 32.9 417.5 27.3 418.4C17.1 420 7.4 413 5.8 402.7L0.2 367.6C-1.4 357.4 5.7 347.8 16 346.1zM85.2 100.7C66.1 100.7 50.7 116.1 50.7 135.3C50.7 154.4 66.1 169.9 85.2 169.9S119.8 154.5000000000001 119.8 135.3C119.8 116.2 104.3 100.7 85.2 100.7zM333.4 230.8H305.2C310.8 243.3 321 252.9 333.4 257.9V230.8zM371.5 230.8V258.1C384.2 253.2 394.5 243.4 400.2 230.8H371.5zM419.4 100.6999999999999C400.3 100.6999999999999 384.9 116.0999999999999 384.9 135.3C384.9 154.4 400.3 169.9 419.4 169.9S453.9 154.5 453.9 135.3C453.9 116.1999999999999 438.5 100.6999999999999 419.4 100.6999999999999zM134.3 483.5H372.9V451.1H134.3V483.5zM73.5 425.1C73.6 425.6 74.4 429.5 76.5 434.6H430.8C432.9000000000001 429.4 433.7 425.7 433.7 425.2C448 356.2 455.7 291 456.8 230.9H423.3C414 261.9 385.3 283.5 352.6 283.5S291.2000000000001 261.9 281.9000000000001 230.9H50.3C51.4 290.8 59.2 356.1 73.5 425.1zM352.7 293.7C365.1 293.7 375.1 303.7 375.1 316.1S365.1 338.5 352.7 338.5S330.3 328.5 330.3 316.1C330.3 303.8 340.3 293.7 352.7 293.7z" />
    <glyph glyph-name="itinerary-bus"
      unicode="&#xF13A;"
      horiz-adv-x="500" d=" M265.3 162.4C299.1 162.4 321.7 181.8 321.7 221.6V325.5C321.7 334.1 313.1 338.6 304.8 338.6C295.9000000000001 338.6 287.9000000000001 334.1 287.9000000000001 325.5V226.1C287.9000000000001 206 281.5000000000001 193 265.3 193C249.7 193 242.1 205.4 242.1 226.1V325.5C242.1 334.1 232.5000000000001 338.6 224.6 338.6C215.4 338.6 207.1 334.1 207.1 325.5V222.3C207 181.2 227.7 162.4 265.3 162.4zM342.7000000000001 169.1C350.3000000000001 165.3 363.4000000000001 162.4 375.2000000000001 162.4C405.8000000000001 162.4 430.9000000000001 183.1 430.9000000000001 215.6C430.9000000000001 241.1 416.6 256 398.4000000000001 266.2L384.7000000000001 273.5C376.4000000000001 278 369.7000000000001 284.6 369.7000000000001 293.6C369.7000000000001 303.5 377.7000000000001 310.5 389.8000000000001 310.5C397.8000000000001 310.5 405.4000000000001 307.3 411.1000000000001 305.1C420.0000000000001 300.6 425.4000000000001 306.4 428.0000000000001 315.6C431.2000000000001 326.1 426.7000000000001 329.9 419.1000000000001 333.8C411.8000000000001 337.6 400.9000000000001 340.2 390.4000000000001 340.2C361.1000000000001 340.2 336.6000000000001 320.8 336.6000000000001 289.6C336.6000000000001 265.4 349.0000000000001 251.7 369.1000000000001 240.2L383.4000000000001 232.2C392.3000000000001 227.1 397.7000000000001 220.4 397.7000000000001 210.9C397.7000000000001 199.1 386.6000000000001 193.4 375.1000000000001 193.4C366.5000000000001 193.4 355.7000000000001 197.2 350.3000000000001 199.8C341.1000000000001 204.3 336.0000000000001 198.5 332.8000000000001 188.6999999999999C329.6000000000001 177.3999999999999 334.4000000000001 172.8999999999999 342.7000000000001 169.0999999999999zM250.6 0C388.9 0 500 110.5 500 248.7C500 387.6 383.8 500 250.6 500C112.4 500 0 387.6 0 248.7C0 111.8 112.7 0 250.6 0zM250.6 465.9C368.8 465.9 465.6 367.2 465.6 248.4C465.6 130.9 368.8 34.1 250.6 34.1C131.8 34.1 34.4 130.3 34.4 248.4C34.4 367.8 132.2000000000001 465.9 250.6 465.9zM190.8 214.3C190.8 243.3 170.7 253.8 160.2 255.4V256C172.6 262.4 187.9 274.2 187.9 295.5C187.9 324.2 162.7 337.9 138.5 337.9H91.7C83.1 337.9 78 330.9 78 323.5999999999999V177.4C78 168.5 86.9 164 94.9 164H139.2C165.9 164.3 190.8 178.7 190.8 214.3zM111.5 309.2H124.6C139.6 309.2 152.6 304.1 152.6 287.2C152.6 271 138.9 265.2 124.6 265.2H111.5V309.2zM113.4 193V241.7H128.4C140.8000000000001 241.7 157.7000000000001 237.2 157.7000000000001 218.0999999999999C157.7000000000001 201.1999999999999 148.1000000000001 193.2999999999999 128.4 193.2999999999999H113.4V192.9999999999999z" />
    <glyph glyph-name="itinerary-car"
      unicode="&#xF13B;"
      horiz-adv-x="679.6" d=" M521.6 407.7C521.6 391.8 508.7 379 492.9 379C477.0000000000001 379 464.1 391.9 464.1 407.7C464.1 423.6 477 436.5 492.9 436.5C508.7 436.5 521.6 423.6 521.6 407.7zM184.8 436.5C168.9 436.5 156 423.6 156 407.7S168.9 379 184.8 379S213.5 391.9 213.5 407.7C213.5 423.6 200.7 436.5 184.8 436.5zM339.3 436.5C323.4000000000001 436.5 310.5 423.6 310.5 407.7S323.4 379 339.3 379S368 391.9 368 407.7C368 423.6 355.2 436.5 339.3 436.5zM653.1 307.4C650.2 306.6 646.6 306.6 643.3000000000001 306.2000000000001C660.8000000000001 268.4000000000001 669.7 231.6 669.7 192.2000000000001C669.7 174.9 668.1 157.7000000000001 665.1 140.8000000000001V46.9000000000001C665.1 18.8000000000001 652.6 1e-13 634 1e-13H585.8C565.3 1e-13 558.9 28.5000000000001 556.6999999999999 47.7000000000001C545.9999999999999 47.7000000000001 534.4 47.6000000000001 534.4 47.6000000000001L521.4 47.9000000000001H159.5L146.2 47.6000000000001H127.6C125.6 28.4000000000001 119 1e-13 98.5 1e-13H50.3C31.7 1e-13 19.2 18.9 19.2 46.9V124.6C13.9 146.1 11 169.3 11 192.1C11 231.5 19.8 268.3 37.2 306C33.5 306.4000000000001 29.5 306.4000000000001 26.5 307.4000000000001C9 312.6 0 324.3 0 342.2C0 363.1 11.8 376.7 32.5 379.2C56.8 382.2 68.4 380.4 76.4 375.4C77.9 378 80.7 382.7 80.7 382.7C104.1 422.5 128.3 463.8 148.4 478.6C169.2 493.9 221 500.5 316.6 500H364.5C459.9 500.5 511.7 493.9 532.3 478.7C552.3 463.9 576.3 423 599.4 383.3C599.4 383.3 602.3 378.7 603.9 375.8C611.8 380.4 623.3 382.1 647.1 379.1C667.8000000000001 376.5 679.6 363.1 679.6 342.1C679.5 324.3 670.7 312.6 653.1 307.4zM145.4 149.9C145.4 174.4 125.6 194.2 101.2 194.2C76.7 194.2 57 174.4 57 149.9S76.8 105.6 101.2 105.6S145.4 125.4 145.4 149.9zM160.1 333.2C142.7 326.3 128.7 312.1 122 293.9H160.1V333.2zM247.5 293.9C240.8 312.2 226.7 326.5 208.9 333.4V293.9H247.5zM314.6 333.2C297.2000000000001 326.3 283.2000000000001 312.1 276.7000000000001 293.9H314.6V333.2zM401.4000000000001 295.7C394.5000000000001 313.2 380.6 326.8 363.5000000000001 333.5V294H368.9000000000001V294.1H401.2000000000001C401.2000000000001 294.6 401.3000000000001 295.2 401.4000000000001 295.7zM468.2 333.2C451.3000000000001 326.4 437.6 313 430.8000000000001 295.7C430.9000000000001 295.2 430.9000000000001 294.6 431.1000000000001 294.1H468.2000000000001V333.2zM492.9 365.8C535.6 365.8 573.2 337 584.2 295.7C584.3000000000001 295.2 584.5 294.5 584.5 293.8H615.3C612.9 299 610.4 304.1 607.5999999999999 309.3L572.8999999999999 367.6C554.3999999999999 399.3 528.9999999999999 442.6 514.0999999999999 453.6C505.8999999999999 459.6 475.7999999999999 469.4999999999999 364.5999999999999 468.9999999999999H316.3C204.9 469.4999999999999 174.7 459.6 166.5 453.6C151.4 442.5 125.7 398.7 107.1 366.8C107.1 366.8 80.6 322.5 73.5 310.5C70.5 304.8 67.7 299.2 65.1 293.5999999999999H93C93.1 294.0999999999999 93.1 294.8 93.3 295.5C104.3 336.8 142 365.5999999999999 184.6 365.5999999999999C216 365.5999999999999 244.5 350 261.8 325.5C279.2 350.0999999999999 307.7 365.5999999999999 339.1 365.5999999999999C370.1 365.5999999999999 398.4000000000001 350.4 415.7000000000001 326.2C433.5000000000001 350.5999999999999 461.8000000000001 365.8 492.9 365.8zM551.6 294.1V294H555.4C548.6999999999999 312.3 534.5 326.6 516.8 333.5V294.1H551.5999999999999zM622.5 149.9C622.5 174.4 602.7 194.2 578.3 194.2C553.8 194.2 534.0999999999999 174.4 534.0999999999999 149.9S553.8999999999999 105.6 578.3 105.6S622.5 125.4 622.5 149.9z" />
    <glyph glyph-name="itinerary-line-idf-a"
      unicode="&#xF13C;"
      horiz-adv-x="500" d=" M249.8008 461.9488C132.97 461.9488 38.1508 366.9304 38.1508 249.502C38.1508 132.97 132.97 38.0512 249.8008 38.0512C366.7308000000001 38.0512 461.8492 132.97 461.8492 249.502C461.8492 366.9304 366.8308 461.9488 249.8008 461.9488M249.8008 1C112.2532 1 1 112.1536 1 249.502C1 388.0456 112.2532 499 249.8008 499A248.7954 248.7954 0 0 0 499 249.502C499 112.1536 387.5476 1 249.8008 1 M278.5 211.5H217.5L241.7 285.9C244.6 295.1 247.6 307.4 247.6 315.3H248.2C248.2 308.1 251 295.8 254.4 285.9zM361 138.8L277.7 372.7H221.8L139 138.8H190L204.7 183.2H291L305.6 138.8z" />
    <glyph glyph-name="itinerary-line-idf-b"
      unicode="&#xF13D;"
      horiz-adv-x="500" d=" M250.1 461.9488C133.2688 461.9488 38.25 367.13 38.25 249.6016C38.25 132.8704 133.2684 38.0516 250.0992 38.0516S461.9484 132.8708 461.9484 249.6016C461.8484 367.1296000000001 366.8304 461.9488 250.0992 461.9488M250.1 1C112.3528 1 1 112.1536 1 249.6016A248.8159 248.8159 0 0 0 250.1 499C387.7468 499 499 387.8464 499 249.6016C499 112.1536 387.7468 1 250.1 1 M287.9 202.2C287.9 171.8 266.4 167.1 242.2 167.1H212V232.2H239.5C256.4 232.3 287.9 231.3 287.9 202.2M282.8 295.8C282.8 269 255.4 269.3 237.9 269.3H212V322.9H237.1C254.1 322.9 282.8 323.6 282.8 295.8M339.9000000000001 200.9C339.9000000000001 234 319.3 253.2 294.9000000000001 256.5V257.1C313.0000000000001 260.4 332.2000000000001 278.6 332.2000000000001 302.6C332.2000000000001 353.2 285.5000000000001 361.9 247.4000000000001 361.9H160V128.5H243.8C288.1 128.5 339.9 142 339.9 200.9" />
    <glyph glyph-name="itinerary-line-idf-c"
      unicode="&#xF13E;"
      horiz-adv-x="500" d=" M250.1 462.7C132.7 462.7 37.3 367.5 37.3 249.4C37.3 132.5 132.8 37.2 250.1 37.2C367.3 37.2 462.9 132.5 462.9 249.4C462.8 367.5 367.3 462.7 250.1 462.7M250.1 0C111.8 0 0 111.6 0 249.4C0 388.3 111.8 500 250.1 500C388.2 500 500 388.3 500 249.4C500 111.6 388.2 0 250.1 0 M341.4 139.4L328.1 179.4C316.5 172.7 299.7 166.9 281.1 166.9C244.3 166.9 212.2 195.3 212.2 244.1C212.2 281.1 228.8 323.5 277.5 323.5C292.3999999999999 323.5 309.3 319 324.6 310.7L341.5 353.4C324.6 361 303.3999999999999 366.9 274.5 366.9C196.0999999999999 366.9 158.6999999999999 307.8 158.6999999999999 242.6C158.6999999999999 174 203.3999999999999 123.4 274.5 123.4C297.3 123.4 324.5 131 341.4 139.4" />
    <glyph glyph-name="itinerary-line-idf-d"
      unicode="&#xF13F;"
      horiz-adv-x="500" d=" M250 462.7C132.7 462.7 37.3 367.6 37.3 249.7C37.3 132.5 132.7 37.2 250 37.2C367.4 37.2 462.8 132.5 462.8 249.7C462.8 367.5 367.4 462.7 250 462.7M250 0C111.9 0 0 111.6 0 249.7C0 388.3 111.9 500 250 500S500 388.3 500 249.7C500 111.6 388.1 0 250 0 M301.7 247.4C301.7 186.2 267.2 169 222.2 169H196.8V321.3H220.4C252.4 321.3 301.7 312.7000000000001 301.7 247.4M355 250.6C355 360.4 257.9 362.1 213.1 362.1H145V128.7H210.8C282.5 128.7 355 148.6 355 250.6" />
    <glyph glyph-name="itinerary-line-idf-e"
      unicode="&#xF140;"
      horiz-adv-x="500" d=" M249.9 462.9C132.8 462.9 37.2 367.6 37.2 249.7C37.2 132.5 132.8 37.2 249.9 37.2C367.3 37.2 462.7 132.5000000000001 462.7 249.7000000000001C462.7 367.5000000000001 367.2000000000001 462.9 249.9000000000001 462.9M249.9000000000001 1e-13C111.9 0 0 111.7 0 249.7C0 388.4 111.9 500 249.9 500C388.1 500 500 388.4 500 249.7C500 111.7 388.1 0 249.9 0 M324.9 127.5V169.4H227.1V230.6H316.7V270.9H227.1V318.7H319.8V360.8H175.2V127.5z" />
    <glyph glyph-name="itinerary-line-idf-h"
      unicode="&#xF141;"
      horiz-adv-x="500" d=" M152.9 368.6V131.4H206V230.4H293.9V131.4H347.2V368.6H293.9V277.1H206V368.6z M34.4 84V416.1C34.4 443.4 56.4 465.5 83.4 465.5H416.5C443.6 465.5 465.6 443.3 465.6 416.1V84C465.6 56.7 443.6 34.5 416.5 34.5H83.5C56.4 34.5 34.4 56.7 34.4 84M83.5 500C37.5 500 0 462.4 0 416.1V84C0 37.6 37.5 0 83.5 0H416.6C462.6 0 500 37.6 500 84V416.1C500 462.4 462.6 500 416.6 500H83.5z" />
    <glyph glyph-name="itinerary-line-idf-j"
      unicode="&#xF142;"
      horiz-adv-x="500" d=" M258.3 370.6H311.4000000000001V220.6C311.4000000000001 153 279.2000000000001 129.4 227.8000000000001 129.4C215.2000000000001 129.4 199.1000000000001 131.5000000000001 188.6 135.1L194.6 178.4C201.9 176.0000000000001 211.4 174.2000000000001 221.9 174.2000000000001C244.3000000000001 174.2000000000001 258.4000000000001 184.4 258.4000000000001 221.0000000000001V370.6H258.3z M34.4 83.9V416.1C34.4 443.3 56.4 465.4 83.4 465.4H416.5C443.6 465.4 465.6 443.2 465.6 416.1V83.9C465.6 56.7 443.6 34.5 416.5 34.5H83.4C56.4 34.5 34.4 56.7 34.4 83.9M83.4 500C37.5 500 0 462.3 0 416.1V83.9C0 37.6 37.5 0 83.4 0H416.5C462.5 0 499.9 37.6 499.9 83.9V416.1C500 462.3 462.6 500 416.6 500H83.4z" />
    <glyph glyph-name="itinerary-line-idf-k"
      unicode="&#xF143;"
      horiz-adv-x="500" d=" M34.4 84V416.1C34.4 443.3 56.4 465.5 83.5 465.5H416.6C443.6 465.5 465.7 443.4 465.7 416.1V84C465.7 56.7 443.7000000000001 34.6 416.6 34.6H83.4C56.4 34.6 34.4 56.7000000000001 34.4 84M83.4 500C37.4 500 0 462.3 0 416.1V84C0 37.7 37.4 0 83.4 0H416.5C462.5 0 499.9 37.7 499.9 84V416.1C500 462.3 462.6 500 416.6 500H83.4z M153.6 368.5H206.4V263.7H207.1C212.4 272.9 217.9 281.3 223.5 289.8L276.7 368.6H342.5L264.5 267.7L346.4 131.5H284.5L226.4 233.9L206.4 209V131.5H153.6V368.5z" />
    <glyph glyph-name="itinerary-line-idf-l"
      unicode="&#xF144;"
      horiz-adv-x="500" d=" M34.4 83.9V416.1C34.4 443.3 56.4 465.5 83.4 465.5H416.6C443.7000000000001 465.5 465.6 443.3 465.6 416.1V84C465.6 56.8 443.7000000000001 34.6 416.6 34.6H83.4C56.4 34.6 34.4 56.8 34.4 83.9M83.4 500C37.5 500 0 462.3 0 416.1V84C0 37.6 37.5 0 83.4 0H416.6C462.6 0 500 37.6 500 83.9V416.1C500 462.3 462.7 500 416.6 500H83.4z M176.5 368.6H229.7V176.4H323.5V131.5H176.5z" />
    <glyph glyph-name="itinerary-line-idf-n"
      unicode="&#xF145;"
      horiz-adv-x="500" d=" M34.5 84V416C34.5 443.4 56.4 465.5 83.5 465.5H416.6C443.7000000000001 465.5 465.7 443.4 465.7 416V84C465.7 56.7 443.7000000000001 34.6 416.6 34.6H83.5C56.4 34.6 34.5 56.7000000000001 34.5 84M83.5 500C37.5 500 0 462.3 0 416V84C0 37.7 37.5 0 83.5 0H416.6C462.6 0 500 37.7 500 84V416C500 462.3 462.6 500 416.6 500H83.5z M152.3 131.5V368.7H214.6L263.6 281.7C277.6 256.7 291.3 227.2 302.1 200.4H302.8C299.7 231.7 298.6 263.7 298.6 299.6V368.7H347.6V131.5H291.5L241.1 222.9C227.1 248.7 211.4 278.9 200.1 306.6H198.7C200.4 275 201.1 241.5 201.1 202.9V131.5H152.3z" />
    <glyph glyph-name="itinerary-line-idf-p"
      unicode="&#xF146;"
      horiz-adv-x="500" d=" M34.4 83.9V416.1C34.4 443.3 56.4 465.4 83.5 465.4H416.6C443.7000000000001 465.4 465.7 443.2 465.7 416.1V83.9C465.7 56.6 443.7000000000001 34.5 416.6 34.5H83.4C56.4 34.5 34.4 56.6 34.4 83.9M83.4 500C37.5 500 0 462.3 0 416.1V83.9C0 37.6 37.5 0 83.4 0H416.5C462.5 0 500 37.6 500 83.9V416.1C500 462.3 462.6 500 416.5 500H83.4z M218.2 256.8C222.8 255.8 228.4 255.4 236.1 255.4C264.4 255.4 282 269.8 282 293.8C282 315.5 267.2 328.7000000000001 240.3 328.7000000000001C229.4 328.7000000000001 222.1 327.9 218.2 326.8V256.8zM165.3 364.4C181.8 367.3 204.9 369.4 237.4 369.4C270.3 369.4 294.1 363 309.9 350.1C325 338.4 334.7 318.8 334.7 295.5C334.7 272 327.4 252.2 313.3 239.2C295.1 222.4 267.8 214.2 236.4 214.2C229.3 214.2 223 214.5 218.1 215.6V130.5H165.3V364.4z" />
    <glyph glyph-name="itinerary-line-idf-r"
      unicode="&#xF147;"
      horiz-adv-x="500" d=" M34.4 84V416.1C34.4 443.4 56.5 465.5 83.4 465.5H416.5C443.6 465.5 465.5 443.4 465.5 416.1V84C465.5 56.8 443.6 34.6 416.5 34.6H83.4C56.4 34.6 34.4 56.8 34.4 84M83.4 500C37.5 500 0 462.3 0 416.1V84C0 37.7 37.5 0 83.4 0H416.5C462.5 0 499.9 37.7 499.9 84V416.1C500 462.3 462.6 500 416.6 500H83.4z M213.8 262.5H234.7C261.4000000000001 262.5 277.1 275.8 277.1 296.7C277.1 318.1 262.4000000000001 329.4 237.9000000000001 329.4C225 329.4 217.6 328.7 213.8000000000001 327.7V262.5zM160.9 364.2C178.1 367.4 203.3 369.5 231.9 369.5C266.9 369.5 291.4 364.2 308.2 350.5C322.5 339.3 330.3 322.7 330.3 300.9C330.3 271 308.9000000000001 250.2 288.6 242.8V241.7C305.1 235 314.2000000000001 219.5 320.1 197.7C327.4000000000001 170.7 334.4000000000001 139.7 338.9000000000001 130.6H284.4000000000001C280.9000000000001 137.3 274.9000000000001 156.6 268.3 185.8C261.6 215.7 251.5 223.5 229.4 223.8H213.6V130.6H160.7V364.2H160.9z" />
    <glyph glyph-name="itinerary-line-idf-u"
      unicode="&#xF148;"
      horiz-adv-x="500" d=" M34.5 83.9V416C34.5 443.3 56.5 465.4 83.5 465.4H416.6C443.8 465.4 465.7 443.3 465.7 416V83.9C465.7 56.6 443.8000000000001 34.5 416.6 34.5H83.4C56.5 34.5 34.5 56.6 34.5 83.9M83.4 500C37.5 500 0 462.3 0 416V83.9C0 37.6 37.5 0 83.4 0H416.5C462.5 0 500 37.6 500 83.9V416C500 462.3 462.5 500 416.5 500H83.4z M206.9 370.5V234.3C206.9 193.1 222.7 172.4 249.7 172.4C277.6 172.4 293.1 192.2000000000001 293.1 234.3V370.5H346.3V237.6C346.3 164.4 309.6 129.6 247.9 129.6C188.4 129.6 153.6999999999999 162.9 153.6999999999999 238.3V370.5H206.8999999999999z" />
    <glyph glyph-name="itinerary-line-metro-1"
      unicode="&#xF149;"
      horiz-adv-x="500" d=" M0 250C0 388.1 111.9 500 250 500C388 500 500 388.1 500 250S388 0 250 0C111.9 0 0 111.9 0 250zM295 110.5V386.6H246.9C234.4 376.8 204.7 358.5 172.6 343.2L155.8 335.4L174.6 293.1L189.1 300.5C199.2 305.6 227.0000000000001 320.1 236.5000000000001 327.5V110.5H295z" />
    <glyph glyph-name="itinerary-line-metro-10"
      unicode="&#xF14A;"
      horiz-adv-x="500" d=" M0 250C0 388.1 111.9 500 250 500S500 388.1 500 250S388.1 0 250 0S0 111.9 0 250M369.1 247.8C369.1 276.7000000000001 367.9000000000001 345.6 328.5 345.6C288.5 345.6 287.4 276 287.4 247.8C287.4 220 289.4 149.7000000000001 328.5 149.7000000000001S369.1 220.4 369.1 247.8000000000001M429 247.8000000000001C429 311.5000000000001 412.6 392.2000000000001 329.3 392.2000000000001C246 392.1 228 311.5000000000001 228 247.8000000000001S244.4 103.6 327.7 103.6C411 103.6 429 184.1 429 247.8M193 110.6V386.6H144.9C132.4 376.8 102.7 358.5 70.6 343.2000000000001L53.8 335.4L72.6 293.1L87.1 300.6C97.3 305.7000000000001 125 320.1 134.4 327.6V110.6H193z" />
    <glyph glyph-name="itinerary-line-metro-11"
      unicode="&#xF14B;"
      horiz-adv-x="500" d=" M250 500C111.9 500 0 388 0 250C0 111.9 111.9 0 250 0S500 111.9 500 250C500 388 388.1 500 250 500zM209.7 110.6H151.1V327.6C141.7 320.2000000000001 113.9 305.7000000000001 103.8 300.6L89.3 293.1L70.6 335.4000000000001L87.4 343.2000000000001C119.5 358.4000000000001 149.2 376.9000000000001 161.8 386.6H209.8V110.6zM376.8 110.6H318.1V327.6C308.7 320.2000000000001 281 305.7000000000001 270.8 300.6L256.3 293.1L237.5 335.4000000000001L254.3 343.2000000000001C286.4 358.4000000000001 316.1 376.9000000000001 328.6 386.6H376.6V110.6z" />
    <glyph glyph-name="itinerary-line-metro-12"
      unicode="&#xF14C;"
      horiz-adv-x="500" d=" M250 500C111.9 500 0 388.1 0 250C0 112 111.9 0 250 0S500 111.9 500 250S388.1 500 250 500zM196.4 110.6H137.8V327.6C128.4 320.2000000000001 100.6 305.7000000000001 90.4 300.6L75.9 293.1L57.2 335.4000000000001L74 343.2000000000001C106 358.5000000000001 135.8 376.8000000000001 148.3 386.6H196.4V110.6zM421.4 110.6H242.4V146.9C249.4 179.0000000000001 281.1 207.1 317.9 239.2000000000001C336.3 255.3000000000001 356.2 274.4000000000001 356.2 301.0000000000001C356.2 324.8000000000001 340.6 344.0000000000001 310.5 344.0000000000001C286.2 344.0000000000001 269.4 326.4000000000001 262.7 319.0000000000001L233.8 357.3000000000001C260.4 380.4000000000001 285.1 391.3000000000001 322.2 391.3000000000001C370.7 391.3000000000001 416.5 363.9000000000001 416.5 307.6000000000001C416.5 260.3000000000001 386.4 238.7000000000001 353.1 208.7000000000001C339.1 195.7000000000001 311.2000000000001 172.7000000000001 307.8 156.7000000000001H421.6V110.6z" />
    <glyph glyph-name="itinerary-line-metro-13"
      unicode="&#xF14D;"
      horiz-adv-x="500" d=" M0 250C0 388.1 111.9 500 250 500S500 388.1 500 250C500 112 388.1 0 250 0S0 112 0 250M194.2 110.6V386.6H146C133.5 376.8 103.9 358.4000000000001 71.8 343.2000000000001L55 335.4L73.8 293.2L88.3 300.6C98.5 305.7 126.2 320.2 135.6 327.6V110.6H194.2zM419.6 192.4C419.6 231.1 396.5 253.8000000000001 366 259.6V260.4000000000001C395.3 271.3000000000001 410.6 293.2000000000001 410.6 321.7000000000001C410.6 358.5000000000001 378.5 391.3000000000001 322.2000000000001 391.3000000000001C289.7000000000001 391.3000000000001 263.1 382.3000000000001 239.3000000000001 366.7000000000001L258.4000000000001 326.0000000000001C267.4000000000001 333.8000000000001 284.3 345.9000000000001 309.7000000000001 345.9000000000001C338.6 345.9000000000001 351.9000000000001 330.7000000000001 351.9000000000001 313.0000000000001C351.9000000000001 291.9000000000001 335.0000000000001 278.6 308.1 278.6H279.1V232.9000000000001H307.7000000000001C335.8000000000001 232.9000000000001 360.1 222.7000000000001 360.1 191.0000000000001C360.1 167.5000000000001 340.1 150.3000000000001 308.1 150.3000000000001C284.6 150.3000000000001 265.4000000000001 159.3000000000001 253.7 168.3000000000001L232.6 125.6000000000001C254.9000000000001 113.1000000000001 276.4000000000001 104.8000000000001 311.9000000000001 104.8000000000001C376.2000000000001 105.1000000000001 419.6 143.9000000000001 419.6 192.4000000000001" />
    <glyph glyph-name="itinerary-line-metro-14"
      unicode="&#xF14E;"
      horiz-adv-x="500" d=" M325.3 299.5L269 211.1H346V338.2H345.2C344.1 333.5 336.2 316.7 325.3 299.5z M250 500C111.9 500 0 388 0 250C0 111.9 111.9 0 250 0S500 111.9 500 250C500 388 388.1 500 250 500zM193.6 110.6H135V327.7C125.6 320.3 97.8 305.8 87.7 300.7L73.2 293.3L54.4 335.5L71.2 343.3C103.3 358.6 133 376.9 145.5 386.7000000000001H193.6V110.6zM399.2 168.1V110.6H346V168.1H221.6V219.3L328.8 386.7000000000001H399.2000000000001V211.2000000000001H433.3000000000001V168.2000000000001H399.2000000000001z" />
    <glyph glyph-name="itinerary-line-metro-2"
      unicode="&#xF14F;"
      horiz-adv-x="500" d=" M250 500C112 500 0 388.1 0 250S112 0 250 0S500 111.9 500 250S388.1 500 250 500zM340.3 110.5H161.2V146.9C168.2 179 199.9 207.1 236.7 239.2C255 255.2 275 274.4 275 301C275 324.8 259.4 344 229.2 344C204.9 344 188.1 326.4 181.5 319L152.6 357.3C179.2 380.3 203.8 391.3 241 391.3C289.4 391.3 335.3 363.9 335.3 307.6C335.3 260.3 305.2 238.8 271.9000000000001 208.7000000000001C257.8 195.8000000000001 230.0000000000001 172.7000000000001 226.6 156.7000000000001H340.4000000000001V110.5000000000001z" />
    <glyph glyph-name="itinerary-line-metro-3"
      unicode="&#xF150;"
      horiz-adv-x="500" d=" M250 500C111.9 500 0 388 0 250C0 111.9 111.9 0 250 0S500 111.9 500 250C500 388 388.1 500 250 500zM234.3 105C198.7 105 177.2 113.2 154.9 125.7L176 168.3C187.7 159.3 206.9 150.3 230.3 150.3C262.4000000000001 150.3 282.3 167.5 282.3 191C282.3 222.7 258.1 232.9 229.9 232.9H201.4V278.6H230.3C257.3 278.6 274.1 291.9 274.1 313.1C274.1 330.7 260.8 345.9 231.8 345.9C206.5 345.9 189.6 333.8 180.6 326L161.4 366.7C185.2000000000001 382.4 211.9 391.3 244.3000000000001 391.3C300.6 391.3 332.7000000000001 358.5 332.7000000000001 321.7C332.7000000000001 293.1 317.4000000000001 271.2 288.1 260.3V259.5C318.5 253.6 341.6 230.9 341.6 192.3C341.8 143.6999999999999 298.4000000000001 104.9999999999999 234.3 104.9999999999999z" />
    <glyph glyph-name="itinerary-line-metro-3bis"
      unicode="&#xF151;"
      horiz-adv-x="500" d=" M0 250C0 388 111.9 500 250 500S500 388 500 250S388.1 0 250 0S0 111.9 0 250M343.5 211.4C343.5 230.6 334.9 252.4 314 252.4C303.9 252.4 297.7 247.1 292.4 239.3V280.8H271.4V170.6H291.6V174.7C295.7 171 302.7 168.6 308.6 168.6C334.1 168.6 343.5 193.5 343.5 211.4M321.6 208.4C321.6 219.1 319.4 234.3 306.1 234.3C302 234.3 298.7 232.5 296.4 230.3C292.9 226.9 292.4 224.6 292.4 220V194C292.4 188.5 295.7 183.5 305.2 183.5C318.6 183.5 321.6 197.5 321.6 208.3999999999999M383.3 250.0999999999999H362.2V170.4999999999999H383.3V250.0999999999999zM384.5 271.2C384.5 277.7 380.1 282.2999999999999 372.8999999999999 282.2999999999999C365.7999999999999 282.2999999999999 361.2 277.7 361.2 271.2C361.2 264.7999999999999 365.8 260.2 372.8999999999999 260.2C380.0999999999999 260.2 384.5 264.8999999999999 384.5 271.2M225 183.8C225 200.8 220.4 215 211 226.2C202.2 236.5 190.4 243 175.8 245.6V246.4C203.1 256.7000000000001 216.7 275.5 216.7 302.8C216.7 320.5 209.7 335.4 195.5 347.3C180.5 360.2000000000001 160.4 366.7000000000001 135.5 366.7000000000001C107.7 366.7000000000001 82.3 359.2000000000001 59.3 344.1L76.9 306.8C91 318.9 106.8 325 124 325C136.7 325 146.5 322 153.5 316C159.7 310.5 162.8 303.5 162.8 294.8C162.8 285.3 159.2 277.6 151.9 271.8C144.5 266.1 134.8 263.2000000000001 122.6 263.2000000000001H96V221.2000000000001H122.2C154.2 221.2000000000001 170.4 208.4 170.4 182.8000000000001C170.4 172.0000000000001 166 163.1000000000001 157.2 156.0000000000001C148.5 148.9 136.9 145.4 122.5 145.4C103.6 145.4 86.9 150.9 72.6 162.0000000000001L53.2 122.8000000000001C75.9 110.1000000000001 100.3 103.8000000000001 126.1 103.8000000000001C155 103.8000000000001 178.8 111.4000000000001 197.2 126.8000000000001C215.7 142.0000000000001 225 161.1000000000001 225 183.8000000000001M458.1 194.3000000000001C458.1 206.4000000000001 451.1 213.0000000000001 440.4000000000001 216.9000000000001L430.7000000000001 220.6000000000001C425.6 222.3000000000001 422.4000000000001 224.3000000000001 422.4000000000001 228.5000000000001C422.4000000000001 233.2000000000001 426.4000000000001 236.1000000000001 433.4000000000001 236.1000000000001C438.5000000000001 236.1000000000001 444.9000000000001 234.3000000000001 449.5000000000001 231.3000000000001L455.9 246.6000000000001C451.7 248.7000000000001 444.4000000000001 251.9000000000001 434.5000000000001 251.9000000000001C415.8000000000001 251.9000000000001 403.2000000000001 240.1000000000001 403.2000000000001 225.1000000000001C403.2000000000001 215.6000000000001 407.8000000000001 208.4000000000001 419.1 204.1000000000001L428.5 200.5000000000001C432.7 198.9 438.6 197.3000000000001 438.6 191.7000000000001C438.6 185.5000000000001 431.9000000000001 183.7000000000001 426.4000000000001 183.7000000000001C420.2000000000001 183.7000000000001 412.8 186.1 407.8 189.7000000000001L401.4000000000001 174.0000000000001C405.9000000000001 171.3000000000001 414.9000000000001 167.9 424.8 167.9C445.6 167.8 458.1 178.8 458.1 194.3" />
    <glyph glyph-name="itinerary-line-metro-4"
      unicode="&#xF152;"
      horiz-adv-x="500" d=" M231.5 299.4L175.2 211H252.2V338.2H251.5C250.2 333.4 242.4 316.6 231.5 299.4z M250 500C112 500 0 388 0 250S112 0 250 0C388.1 0 500 111.9 500 250C500 388 388.1 500 250 500zM339.4 168H305.3V110.5H252.1V168H127.8V219.2L235 386.7H305.4V211.1H339.5V168z" />
    <glyph glyph-name="itinerary-line-metro-5"
      unicode="&#xF153;"
      horiz-adv-x="500" d=" M0 250C0 388.1 111.9 500 250 500S500 388.1 500 250C500 112 388.1 0 250 0S0 112 0 250M343.9 198.6C343.9 240.1 313.4 281.9000000000001 238 285.9000000000001L230.2 286.3000000000001L234.1 339.2000000000001H333.5V384.9000000000001H188.3L177.3 241.4000000000001L220.4 241.0000000000001C271.2 240.6000000000001 284.6 213.2000000000001 284.6 193.3000000000001C284.6 160.8000000000001 257.6 148.7000000000001 236.1 148.7000000000001C212.6 148.7000000000001 196.9 157.3000000000001 183.7 166.3000000000001L163.4 123.3000000000001C184.9 111.2000000000001 209.9 103.4000000000001 239.2 103.4000000000001C302.1 103.3000000000001 343.9 145.9000000000001 343.9 198.6000000000001" />
    <glyph glyph-name="itinerary-line-metro-6"
      unicode="&#xF154;"
      horiz-adv-x="500" d=" M0 250C0 388 111.9 500 250 500C388 500 500 388 500 250C500 111.9 388.1 0 250 0S0 111.9 0 250M289.7 192C289.7 217.8 272.9 236.2 246.3 236.2C229.5 236.2 215.8 229.6 210.3 220.9C207.2 216.2 207.2 205.6 207.2 197.4C207.2 171.3 222 145.8 249.5 145.8C276 145.9 289.7 168.1 289.7 192M344.9 197.8999999999999C344.9 249.4999999999999 308.1 279.7 263.1 279.7C233.8 279.7 216.1 269.0999999999999 206.8 260.8999999999999C210.3 316.3999999999999 238.9 344.2 276.8 344.2C292.4 344.2 306.5 340.7 313.9 337.5999999999999L322.5 384.5C311.1 387.3 297 389.2 281.4 389.2C194.6 389.2 150.4 323.6 150.4 227.7C150.4 154.5999999999999 177 102.5999999999999 251.3 102.5999999999999C308.1 102.4999999999999 344.9 142.7999999999999 344.9 197.8999999999999" />
    <glyph glyph-name="itinerary-line-metro-7"
      unicode="&#xF155;"
      horiz-adv-x="500" d=" M0 250C0 388 112 500 250 500C388.1 500 500 388 500 250C500 111.9 388.1 0 250 0C112 0 0 112 0 250M352.3 339.8V384.8H159.2V338.7000000000001H293.3L226 213.6C201.8 168.6 192 145.2000000000001 192 108.8H255C255 152.2 291.8 234.7000000000001 352.3 339.8" />
    <glyph glyph-name="itinerary-line-metro-7bis"
      unicode="&#xF156;"
      horiz-adv-x="500" d=" M0 250C0 388.1 111.9 500 250 500S500 388.1 500 250C500 112 388.1 0 250 0S0 111.9 0 250M323.3 208.4C323.3 219.1 321.1 234.3 307.9000000000001 234.3C303.7000000000001 234.3 300.4000000000001 232.5 298.2000000000001 230.3C294.6 226.9 294.1 224.6 294.1 220V193.8999999999999C294.1 188.3999999999999 297.4000000000001 183.5 306.9000000000001 183.5C320.4000000000001 183.5 323.3 197.5 323.3 208.3999999999999M345.3 211.3999999999999C345.3 230.5999999999999 336.7 252.3999999999999 315.9000000000001 252.3999999999999C305.7000000000001 252.3999999999999 299.6 246.9999999999999 294.2000000000001 239.2999999999999V280.7999999999999H273.2000000000001V170.4999999999999H293.4000000000001V174.6999999999999C297.4000000000001 170.9999999999999 304.4000000000001 168.5999999999999 310.4000000000001 168.5999999999999C335.9000000000001 168.5999999999999 345.3 193.3999999999999 345.3 211.3999999999999M385.1 250.0999999999999H364.1V170.4999999999999H385.1V250.0999999999999zM386.3 271.2999999999999C386.3 277.6999999999998 381.8 282.2999999999999 374.6 282.2999999999999C367.5 282.2999999999999 362.9000000000001 277.6999999999998 362.9000000000001 271.2999999999999C362.9000000000001 264.9999999999999 367.5000000000001 260.2999999999999 374.6 260.2999999999999C381.7000000000001 260.1999999999998 386.3 264.8999999999999 386.3 271.2999999999999M235.2 362.3999999999999H57.7V320H180.9L119.1 205C107.1 183 99.1 166 95 154C90.2 139.7 87.8 124.5 87.8 108.7H145.6C145.6 146.5 175.4 217.3 235.1 321.1V362.4zM459.9 194.2999999999999C459.9 206.3999999999999 452.9 212.9999999999998 442.2 216.9999999999998L432.5 220.5999999999999C427.4 222.3999999999999 424.1 224.3999999999999 424.1 228.4999999999999C424.1 233.2999999999999 428.1 236.0999999999999 435.2000000000001 236.0999999999999C440.2000000000001 236.0999999999999 446.7000000000001 234.2999999999999 451.3000000000001 231.2999999999999L457.7 246.6999999999999C453.5000000000001 248.7999999999999 446.2000000000001 251.8999999999999 436.2000000000001 251.8999999999999C417.6 251.8999999999999 404.9000000000001 240.0999999999999 404.9000000000001 225.0999999999999C404.9000000000001 215.6999999999999 409.5000000000001 208.3999999999999 420.8 204.0999999999999L430.2 200.4999999999998C434.4 198.8999999999998 440.4 197.1999999999998 440.4 191.6999999999998C440.4 185.3999999999998 433.6 183.6999999999998 428.1 183.6999999999998C421.9 183.6999999999998 414.5 186.0999999999998 409.5 189.6999999999998L403.1 173.9999999999998C407.6 171.3999999999998 416.5 167.8999999999998 426.5 167.8999999999998C447.3999999999999 167.8999999999998 459.8999999999999 178.7999999999998 459.8999999999999 194.2999999999998" />
    <glyph glyph-name="itinerary-line-metro-8"
      unicode="&#xF157;"
      horiz-adv-x="500" d=" M0 250C0 388.1 111.9 500 250 500S500 388.1 500 250S388.1 0 250 0S0 111.9 0 250M289.1 183.4C289.1 208.5 266.5 222.1 243.0000000000001 233.9C225 226.9 207 208.9 207 187.4C207 164.7 221.9 143.2 248.5000000000001 143.2C274.7000000000001 143.1 289.1 161.6 289.1 183.4M284.8 316C284.8 335.1 272.3 350.8 249.6 350.8C228.1 350.8 214.4 337.4 214.4 318.3C214.4 295.6 237.1 283.5 254.7000000000001 276.1C269.2000000000001 282.7000000000001 284.8000000000001 298.8 284.8000000000001 316M346.2000000000001 187.7000000000001C346.2000000000001 224.1 324.0000000000001 245.9000000000001 298.5000000000001 258.1C324.3000000000001 273.7000000000001 337.6000000000001 293.7000000000001 337.6000000000001 319.5000000000001C337.6000000000001 366.9000000000001 297.4000000000001 390.6 248.8000000000001 390.6C201.5000000000001 390.6 160.1000000000001 359.0000000000001 160.1000000000001 313.2000000000001C160.1000000000001 284.6 175.0000000000001 267.9000000000001 198.8000000000001 253.0000000000001C172.2000000000001 239.4000000000001 151.5000000000001 217.9 151.5000000000001 181.1C151.5000000000001 139.3 186.3000000000001 102.6 247.7000000000001 102.6C304.4000000000001 102.5 346.2000000000001 135.3 346.2000000000001 187.7000000000001" />
    <glyph glyph-name="itinerary-line-metro-9"
      unicode="&#xF158;"
      horiz-adv-x="500" d=" M0 250C0 388.1 111.9 500 250 500S500 388.1 500 250S388.1 0 250 0S0 111.9 0 250M206.1 301.1C206.1 275.2 222.9 256.9 249.5 256.9C266.3 256.9 280 263.5 285.5 272.2C288.6 276.9 288.6 287.5 288.6 295.6C288.6 321.8 273.8 347.2 246.4000000000001 347.2C219.8000000000001 347.2 206.1 324.9 206.1 301.1M151 295.2C151 243.5 187.7000000000001 213.4 232.7000000000001 213.4C262.0000000000001 213.4 279.6 224 288.9000000000001 232.2C285.4000000000001 176.7 256.9000000000001 148.9 219 148.9C203.4 148.9 189.3000000000001 152.5 181.9 155.6L173.3000000000001 108.6C184.7000000000001 105.9 198.7000000000001 103.9 214.4 103.9C301.2000000000001 103.9 345.4000000000001 169.7 345.4000000000001 265.4C345.4000000000001 338.6 318.8 390.5 244.5000000000001 390.5C187.7000000000001 390.7 151 350.4 151 295.2" />
    <glyph glyph-name="itinerary-line-tram-1"
      unicode="&#xF159;"
      horiz-adv-x="500" d=" M296.4 112.5V382H249.3C237 372.4 208 354.5 176.6 339.6L160.2 331.9L178.5 290.7L192.7 298C202.6 303 229.8 317.1 239 324.4V112.6H296.3999999999999zM500 250.1C500 111.1 388.3 0 250.5 0C112.6 0 0 111.7 0 250.1C0 387.4 112.6 500 250.5 500C383.9 500 500 388 500 250.1M466 250.1C466 369 368.9 465.5 250.5 465.5C131.7 465.5 34.6 369 34.6 250.1C34.6 130.7 131.7 34.6 250.5 34.6C368.9 34.6 466 131.2000000000001 466 250.1 M296.4 112.5V382H249.3C237 372.4 208 354.5 176.6 339.6L160.2 331.9L178.5 290.7L192.7 298C202.6 303 229.8 317.1 239 324.4V112.6H296.3999999999999zM500 250.1C500 111.1 388.3 0 250.5 0C112.6 0 0 111.7 0 250.1C0 387.4 112.6 500 250.5 500C383.9 500 500 388 500 250.1M466 250.1C466 369 368.9 465.5 250.5 465.5C131.7 465.5 34.6 369 34.6 250.1C34.6 130.7 131.7 34.6 250.5 34.6C368.9 34.6 466 131.2000000000001 466 250.1" />
    <glyph glyph-name="itinerary-line-tram-10"
      unicode="&#xF15A;"
      horiz-adv-x="500" d=" M250 500C111.9 500 0 388.1 0 250S111.9 0 250 0S500 111.9 500 250S388.1 500 250 500zM250 31.2C129.2 31.2 31.2 129.2 31.2 250S129.2 468.8 250 468.8S468.8 370.8 468.8 250S370.8 31.2 250 31.2z M330.2 381.6C254.2 381.5 237.8 308 237.8 249.9S252.8 118.4 328.7 118.4S421.1 191.8 421.1 249.9S406.1 381.6 330.2000000000001 381.6zM329.4 160.4C293.7 160.4 291.9 224.5 291.9 249.9C291.9 275.6 292.9 339.1 329.4 339.1C365.3 339.1 366.4 276.3 366.4 249.9C366.5 224.9 365.1 160.4 329.4 160.4zM94.2 336.9L78.9 329.8L96 291.2L109.2 298C118.5 302.7 143.8 315.8 152.3 322.6V124.7H205.7V376.5H162C150.6 367.6 123.5 350.9 94.2 336.9z" />
    <glyph glyph-name="itinerary-line-tram-11"
      unicode="&#xF15B;"
      horiz-adv-x="500" d=" M87.5 500C39.2 500 0 460.8 0 412.5V87.5C0 39.2 39.2 0 87.5 0H412.5C460.8 0 500 39.2 500 87.5V412.5C500 460.8 460.8 500 412.5 500H87.5zM87.5 462.5H412.5C440.1 462.5 462.5 440.1 462.5 412.5V87.5C462.5 59.9 440.1 37.5 412.5 37.5H87.5C59.9 37.5 37.5 59.9 37.5 87.5V412.5C37.5 440.1 59.9 462.5 87.5 462.5z M172.1 119.8V324.5C163.2 317.5 137.1 303.9 127.5 299L113.8 292.1L96.2 331.9L112.1 339.3C142.3 353.7 170.3 371 182.1 380.3H227.5V119.8H172.1 M325.9 119.8V324.5C317 317.5 290.9 303.9 281.3 299L267.6 292.1L250 331.9L265.9 339.3C296.1 353.7 324.1 371 335.9 380.3H381.3V119.8H325.9" />
    <glyph glyph-name="itinerary-line-tram-12"
      unicode="&#xF15C;"
      horiz-adv-x="500" d=" M87.5 500C39.2 500 0 460.8 0 412.5V87.5C0 39.2 39.2 0 87.5 0H412.5C460.8 0 500 39.2 500 87.5V412.5C500 460.8 460.8 500 412.5 500H87.5zM87.5 462.5H412.5C440.1 462.5 462.5 440.1 462.5 412.5V87.5C462.5 59.9 440.1 37.5 412.5 37.5H87.5C59.9 37.5 37.5 59.9 37.5 87.5V412.5C37.5 440.1 59.9 462.5 87.5 462.5z M154.6 119.8V324.5C145.7 317.5 119.6 303.9 110 299L96.3 292.1L78.7 331.9L94.6 339.3C124.8 353.7 152.8 371 164.6 380.3H210V119.8H154.6 M244.2 123.5V157.8C250.8 188.1 280.7 214.7 315.4 244.9C332.7 260.1 351.5 278.1 351.5 303.2C351.5 325.6 336.8 343.7 308.5 343.7C285.5 343.7 269.7 327.1 263.4 320.2L236.1 356.2C261.2 378.1 284.4 388.3 319.5 388.3C365.3 388.3 408.4 362.6 408.4 309.3C408.4 264.7 380 244.4 348.7 216.1C335.4 203.8 309.1 182 305.9 166.9H413.2V123.4H244.2" />
    <glyph glyph-name="itinerary-line-tram-13"
      unicode="&#xF15D;"
      horiz-adv-x="500" d=" M87.5 500C39.2 500 0 460.8 0 412.5V87.5C0 39.2 39.2 0 87.5 0H412.5C460.8 0 500 39.2 500 87.5V412.5C500 460.8 460.8 500 412.5 500H87.5zM87.5 462.5H412.5C440.1 462.5 462.5 440.1 462.5 412.5V87.5C462.5 59.9 440.1 37.5 412.5 37.5H87.5C59.9 37.5 37.5 59.9 37.5 87.5V412.5C37.5 440.1 59.9 462.5 87.5 462.5z M166.6 120V324.7C157.7 317.7 131.6 304.1 122 299.2L108.3 292.3L90.7 332.1L106.6 339.5C136.8 353.9 164.8 371.2 176.6 380.5H222V120H166.6 M314.7 113.4C277.3 113.4 256.7 122.7 239.5 133L260.1 173.3C270.9000000000001 165.4 289.1 156.1 311.2000000000001 156.1C341.1 156.1 360.3000000000001 173.8 360.3000000000001 195.9C360.3000000000001 225.8 337.2000000000001 236.2000000000001 310.6000000000001 236.2000000000001H283.6000000000001V279.4000000000001H311.1000000000001C336.6000000000001 279.4000000000001 352.3000000000001 292.1 352.3000000000001 312.3000000000001C352.3000000000001 329 340.0000000000001 344.2000000000001 312.4000000000001 344.2000000000001C288.4000000000001 344.2000000000001 272.7000000000001 333.0000000000001 264.3000000000001 325.6L245.2000000000001 363.9000000000001C267.3000000000001 378.7000000000001 291.4000000000001 387 324.2000000000001 387C377.3000000000001 387 407.3000000000001 355.5 407.3000000000001 320.7000000000001C407.3000000000001 293.7000000000001 393.0000000000001 272.5000000000001 365.5000000000001 262.2000000000001V261.2000000000001C394.0000000000001 255.8000000000001 416.1000000000001 233.7000000000001 416.1000000000001 197.4C416.3000000000001 151.7000000000001 375.0000000000001 113.4 314.7000000000001 113.4" />
    </font>
</defs>
</svg>
